<svg xmlns="http://www.w3.org/2000/svg">
<defs>
<font id="UTMA&#38;SSignwriter" horiz-adv-x="1451" >
  <font-face 
    font-family="UTM A&#38;S Signwriter"
    font-weight="400"
    font-stretch="normal"
    units-per-em="2048"
    panose-1="2 4 6 3 5 5 6 2 2 4"
    ascent="1638"
    descent="-410"
    x-height="825"
    cap-height="1554"
    bbox="-846.147 -711.025 4942 2214.69"
    underline-thickness="109"
    underline-position="-251"
    unicode-range="U+0020-2026"
  />
<missing-glyph horiz-adv-x="5040" 
d="M3351 2045h10q37 -10 37 -52q0 -12 -32 -57h-28q0 24 28 54l2 10q-5 13 -10 15h-9q-8 0 -10 -19h-30q6 49 42 49zM2019 2016l29 -31q0 -16 -40 -30h-19l-59 12l-11 -12l-28 25q11 29 43 29h11l42 -11h2q10 0 30 18zM468 1980h142v-60h-94v-75h89v-59h-89v-129l-5 -5h-49
v323zM1155 1980h43l6 -5v-78h30v-52h-30v-188l-6 -5h-49v193h-25v52h25v78zM1621 1980h42l4 -5v-94h3q23 24 54 24h2q58 0 83 -71l2 -39v-143h-52v115q0 80 -42 80h-7q-43 0 -43 -86v-109h-51v323zM2200 1980h49l5 -5v-222q10 -51 45 -51q44 7 44 59v214l5 5h49v-216
q0 -85 -66 -112q-15 -8 -35 -8q-47 0 -82 55q-14 24 -14 57v224zM2435 1980h159v-60h-56v-268h-53v268h-55v55zM2621 1980h71q7 -4 83 -251h2l80 251h73v-328h-54v242h-2l-74 -242h-44q-4 0 -58 182l-19 60h-3v-242h-55v328zM3760 1980h52v-328h-45l-5 5v11l3 2l-3 14
q-29 -40 -78 -40q-67 0 -100 91l-5 39v3q0 94 92 125l23 3q35 0 63 -32h3v107zM2057 1928h36l4 -6v-49h-45v-221h-48v23q-23 -31 -59 -31q-89 14 -89 97v156h51v-104q0 -79 26 -86l18 -5h6q26 0 39 36l3 26v133h53v25zM3476 1928v-55h-31v-221h-47v25h-2q-15 -33 -57 -33
q-68 0 -86 78l-3 29v146h52v-120q0 -50 19 -68l21 -7h9q42 0 42 69v126h27q4 0 4 28l3 3h49zM758 1905q68 0 103 -77q9 -18 12 -54q0 -88 -90 -127l-32 -3q-63 0 -101 73q-12 22 -12 52v10q0 94 101 126h19zM1011 1905h3q74 0 83 -101v-152h-51v119q0 76 -42 76h-5
q-44 0 -44 -76v-119h-52v245h46v-21q30 29 62 29zM1466 1905h7q72 0 105 -89h-60q-16 31 -42 31h-17q-53 -14 -53 -61l-3 -15q12 -69 61 -69h9q22 0 47 27h40l2 3h3l2 -3l2 3l3 -3l2 3l2 -7q-33 -81 -110 -81q-76 0 -110 94l-4 36v3q0 85 77 120q15 8 37 8zM3141 1905h2

<glyph glyph-name=".notdef" horiz-adv-x="5040" 
d="M3351 2045h10q37 -10 37 -52q0 -12 -32 -57h-28q0 24 28 54l2 10q-5 13 -10 15h-9q-8 0 -10 -19h-30q6 49 42 49zM2019 2016l29 -31q0 -16 -40 -30h-19l-59 12l-11 -12l-28 25q11 29 43 29h11l42 -11h2q10 0 30 18zM468 1980h142v-60h-94v-75h89v-59h-89v-129l-5 -5h-49
v323zM1155 1980h43l6 -5v-78h30v-52h-30v-188l-6 -5h-49v193h-25v52h25v78zM1621 1980h42l4 -5v-94h3q23 24 54 24h2q58 0 83 -71l2 -39v-143h-52v115q0 80 -42 80h-7q-43 0 -43 -86v-109h-51v323zM2200 1980h49l5 -5v-222q10 -51 45 -51q44 7 44 59v214l5 5h49v-216
q0 -85 -66 -112q-15 -8 -35 -8q-47 0 -82 55q-14 24 -14 57v224zM2435 1980h159v-60h-56v-268h-53v268h-55v55zM2621 1980h71q7 -4 83 -251h2l80 251h73v-328h-54v242h-2l-74 -242h-44q-4 0 -58 182l-19 60h-3v-242h-55v328zM3760 1980h52v-328h-45l-5 5v11l3 2l-3 14
q-29 -40 -78 -40q-67 0 -100 91l-5 39v3q0 94 92 125l23 3q35 0 63 -32h3v107zM2057 1928h36l4 -6v-49h-45v-221h-48v23q-23 -31 -59 -31q-89 14 -89 97v156h51v-104q0 -79 26 -86l18 -5h6q26 0 39 36l3 26v133h53v25zM3476 1928v-55h-31v-221h-47v25h-2q-15 -33 -57 -33
q-68 0 -86 78l-3 29v146h52v-120q0 -50 19 -68l21 -7h9q42 0 42 69v126h27q4 0 4 28l3 3h49zM758 1905q68 0 103 -77q9 -18 12 -54q0 -88 -90 -127l-32 -3q-63 0 -101 73q-12 22 -12 52v10q0 94 101 126h19zM1011 1905h3q74 0 83 -101v-152h-51v119q0 76 -42 76h-5
q-44 0 -44 -76v-119h-52v245h46v-21q30 29 62 29zM1466 1905h7q72 0 105 -89h-60q-16 31 -42 31h-17q-53 -14 -53 -61l-3 -15q12 -69 61 -69h9q22 0 47 27h40l2 3h3l2 -3l2 3l3 -3l2 3l2 -7q-33 -81 -110 -81q-76 0 -110 94l-4 36v3q0 85 77 120q15 8 37 8zM3141 1905h2
q49 0 70 -60v-14h-52q0 16 -16 16h-4q-14 0 -19 -13v-13q0 -9 68 -35q30 -19 30 -59q0 -58 -61 -80l-23 -3q-76 12 -76 83h54q0 -20 27 -25h4q19 0 24 23q0 22 -68 44q-34 27 -34 59q0 66 74 77zM4203 1905q55 0 77 -63q7 -18 7 -65v-125h-52v112q0 83 -40 83h-11
q-33 0 -40 -54v-141h-52v5h-2l2 2v238h47v-21q25 29 64 29zM4432 1905h5q40 0 69 -40v18l-3 3l3 11h47v-208q0 -97 -85 -132l-33 -4h-7q-70 0 -104 80h59q24 -22 45 -23h13q22 0 43 22q15 13 22 52h-3q-32 -40 -73 -40q-57 0 -96 70q-10 18 -14 63q0 88 87 125zM3851 1897
h53v-136q6 -59 40 -59h7q46 0 46 93v102h51v-245h-47l-3 10h3l-3 3v5l3 2v3h-4q0 -23 -57 -31h-3q-59 0 -84 75l-2 85v93zM690 1771q10 -69 63 -69h7q59 14 59 65v15q-13 65 -59 65h-5q-58 0 -65 -76zM3630 1774q13 -72 61 -72h5q58 0 66 75q0 49 -51 70h-22q-37 0 -56 -57z
M4374 1774q8 -72 65 -72h5q59 12 59 72q0 61 -59 73h-14q-56 -16 -56 -62v-11zM3928 1620h52v-57h-52v57zM1054 1402q43 -11 43 -49v-4q0 -17 -32 -60h-28q0 25 31 57v7q0 12 -7 15h-12q-10 -4 -10 -19h-28v6q0 32 33 44zM3349 1339q92 0 138 -99h-60q-37 42 -80 42
q-55 0 -87 -68q-10 -22 -10 -47q0 -78 81 -110l18 -1q36 0 75 39h61q-44 -97 -138 -97q-93 0 -141 112q-10 31 -10 62q0 97 90 152q29 15 63 15zM3664 1339q57 0 103 -47q46 -51 46 -115v-20q0 -89 -91 -146q-33 -13 -63 -13q-89 0 -138 101q-13 33 -13 60v18q0 98 98 151
q29 11 58 11zM2261 1337h2l47 -11h3q11 0 26 11l18 -36q-18 -19 -35 -19h-3l-54 10l-20 -7l-20 36q18 16 36 16zM716 1334h19q118 0 129 -26q25 -26 25 -62q-10 -57 -30 -57v-6q47 -23 47 -66v-18q0 -63 -69 -88l-54 -5h-67v328zM2550 1334h53v-217q6 -61 45 -61q29 0 44 39
l3 30v203l4 6h45l5 -6v-171q0 -118 -40 -133q-24 -26 -64 -26q-55 0 -91 76l-4 54v206zM2805 1334h59q4 0 122 -237h4v237h50l4 -6v-322h-58q-29 48 -125 238h-3v-238h-53v328zM3101 1334h54v-328h-54v328zM3859 1334h8q155 0 174 -40q23 -11 47 -75l4 -36v-11l3 -2
q0 -94 -82 -149q-35 -15 -99 -15h-55v328zM4141 1334h153v-60h-103v-75h101v-57h-101v-74l4 -5h99v-57h-157v322zM3563 1175v-10q0 -76 79 -108l19 -1q68 0 96 86l3 20v15q0 61 -60 94q-12 8 -39 11q-66 0 -96 -83zM770 1274v-67h9q54 0 54 28l3 14q-11 25 -29 25h-37z
M3912 1274v-206l2 -3v-2q104 0 122 76l2 15v29q0 34 -32 68q-25 23 -78 23h-16zM1041 1259h5q38 0 71 -40v32h49v-245h-49v32q-36 -40 -80 -40q-75 0 -101 97l-5 36q0 89 85 125zM1314 1259h3q74 0 83 -102v-151h-51v128q0 67 -42 67h-10q-34 0 -39 -62v-133h-52v245h47v-21
q28 29 61 29zM1543 1259h5q45 0 71 -40v32h47v-219q0 -95 -104 -126h-16q-74 0 -108 82h59q26 -25 44 -25h14q52 0 64 77q-33 -42 -76 -42q-60 0 -101 81l-7 44v16q0 79 85 117zM1912 1259h2q43 0 61 -37h2q32 37 69 37h4q57 0 79 -55q8 -25 8 -45v-153h-52v138q0 44 -23 55
l-12 2h-15q-32 0 -36 -65v-130h-52v136q0 59 -43 59h-8q-32 0 -36 -57v-138h-54v245h50v-21h2q6 24 54 29zM2282 1259q47 0 75 -42v34h47v-245h-47v32q-36 -40 -78 -40q-74 0 -102 92l-6 41q0 90 85 125zM985 1117q0 -48 61 -61h4q45 0 62 46l3 15v22q-12 62 -57 62h-14
q-41 0 -59 -57v-27zM1487 1128q0 -48 43 -68l18 -4h5q47 0 63 57v23q-11 65 -58 65h-12q-50 0 -59 -73zM2225 1131v-14q15 -61 57 -61h14q58 12 58 64v11q0 45 -37 65l-18 5h-10q-64 -8 -64 -70zM770 1150v-82q0 -5 7 -5q77 0 77 45q0 34 -47 42h-37zM2966 753l24 -28
l-51 -55q-18 12 -27 26zM1524 727l85 -54q0 -15 -21 -42l-87 54q18 41 23 42zM2850 693h38l55 -60h-54l-21 26l-23 -26h-54q54 60 59 60zM3422 693h40l56 -60h-54l-24 26h-1q0 -5 -19 -26h-54zM622 685h52q8 -4 47 -137l34 -110q9 8 34 100l48 147h54v-2l-112 -326h-44z
M1159 685h51v-54h-51v54zM1354 685h46l6 -5v-323h-52v328zM2317 685h45l4 -5v-78h31v-52h-31v-193h-53v193h-26v52h26v78zM2425 685h52v-98h2q23 23 54 23h3q57 0 81 -71l3 -38v-144h-52v115q0 81 -39 81h-10q-42 0 -42 -87v-109h-52v328zM2664 685h52v-54h-52v54zM3028 685
h44l6 -5v-78h29v-52h-29v-193h-54v193h-27v52h27v78zM3234 685h52v-328h-52v328zM3957 685h52v-328h-52v328zM4316 685h51v-54h-51v54zM1555 610h5q83 0 110 -102l3 -23v-11q0 -83 -85 -120l-35 -5q-76 0 -111 97l-4 32q0 97 93 130zM1811 610h4q53 0 78 -60q7 -25 7 -81
v-112h-54v146q-7 50 -37 50h-10q-38 0 -42 -57v-139h-54v245h49v-21q26 29 59 29zM2046 610h4q45 0 63 -39h3v31h49v-206q0 -102 -89 -135l-28 -3h-5q-73 0 -106 81h52l37 -20l15 -3h14q50 0 61 72q-33 -39 -73 -39q-62 0 -98 76q-11 23 -12 60q0 85 86 123zM2866 610h2
q82 0 111 -104l2 -25l-2 -27h-172q15 -45 45 -45l14 -3q29 0 49 22h57v-3q-35 -76 -108 -76q-77 0 -111 97l-1 28v8q0 49 32 89q34 39 82 39zM3429 610h5q41 0 70 -39h2v31h47v-245h-47v31h-2q-35 -39 -77 -39q-71 0 -101 89l-5 36v14q0 86 84 120zM3711 610h7
q88 0 107 -128l-2 -1v-15q0 -65 -66 -106q-21 -11 -46 -11q-34 0 -64 32v-99l-5 -5h-49v325h49v-28q31 36 69 36zM4151 610q44 0 75 -39v31h49v-245h-49v31q-35 -39 -77 -39q-92 0 -108 132q0 84 73 121q15 8 37 8zM922 602h50v-136q3 -60 42 -60h5q44 0 44 87v109h52v-245
h-47v24h-5q0 -23 -56 -32h-3q-55 0 -82 68q-4 35 -4 99v81zM1159 602h51v-245h-51v245zM2664 602h52v-245h-52v245zM4316 602h51v-245h-51v245zM1492 488v-16q13 -66 59 -66h4q59 0 66 76q-13 71 -59 71h-11q-59 -16 -59 -65zM1987 472q15 -66 59 -66h11q48 0 59 75v1
q-13 71 -59 71h-14q-39 0 -56 -57v-24zM2805 506h122v2q-16 45 -59 45h-7q-35 0 -56 -47zM3373 474q13 -68 61 -68h5q52 0 65 63v12q-10 72 -57 72h-16q-56 -14 -56 -63zM3642 478q12 -72 61 -72h3q50 0 65 60v22q0 43 -49 65h-22q-47 0 -58 -72v-3zM4095 472q10 -66 66 -66
q43 0 61 48l2 15v16q0 54 -52 68h-18q-42 0 -59 -60v-21zM3416 321h51v-52h-51v52zM4137 321h51v-52h-51v52zM2733 133h4q35 0 43 -50v-2q0 -16 -24 -41l-10 -17h-28q0 25 28 56l3 2v2q-3 19 -9 19h-10q-8 0 -9 -19h-30q6 50 42 50zM1546 116l52 -60l-26 -19l-52 52zM352 79
h4q75 -48 85 -60l-20 -37q-88 49 -88 58zM3490 79l86 -58l-18 -39q-10 0 -91 55q15 36 23 42zM4578 76l19 -42l-91 -52l-20 39l92 58v-3zM1204 53h51v-19l5 -5h14v-36h-14l-5 -5v-279h-46v31q-34 -40 -81 -40q-72 0 -102 105l-3 26q0 102 101 131h14q33 0 66 -33v59l-6 5
h-43v36h49v24zM1480 45h40l56 -61h-53l-23 27l-23 -27h-53zM2641 45h33q12 0 63 -61h-54l-23 27q-19 -21 -19 -27h-58v4zM49 37h160v-60h-56v-268h-50l-4 5v245l2 3v2l-2 2l2 3l-2 2l2 3l-2 3h-54v54zM699 37h47v-73l2 -2l-2 -3v-3l2 -2l-2 -3v-3l2 -2v-2l-2 -3l2 -3h3
q17 24 51 24h3q53 0 77 -58q7 -17 7 -42v-153h-52v127q0 68 -40 68h-8q-43 0 -43 -86v-109h-52v322zM1297 37h47l5 -6v-49h-52v55zM1987 37h52v-198l70 115h62l-78 -118l90 -125v-2h-70q-10 22 -74 115v-115h-52v328zM2271 37v-99q24 24 53 24q57 0 80 -56q10 -19 10 -77
v-120h-54v133q0 62 -41 62h-11q-31 0 -37 -55v-140h-53v314l-1 3v3l1 2l-1 3l1 3h53zM2458 37h51v-55h-51v55zM3148 37h51v-108q27 33 68 33h3q75 0 105 -94l5 -37q0 -75 -64 -120q-30 -11 -49 -11q-41 0 -72 40v-31h-47v328zM4275 37h52v-99h2q23 24 54 24h3q60 0 82 -74
l2 -41v-138h-52v111q0 82 -32 82l-10 2h-12q-37 0 -37 -80v-115h-52v328zM329 -38h3v-58h-5q-42 0 -42 -57v-138h-53v245h47v-21q18 29 50 29zM564 -38q71 0 86 -87v-166h-51v136q-6 59 -41 59h-6q-45 0 -45 -84v-111h-52v245h50v-21q25 29 59 29zM1504 -38q72 0 105 -94
l5 -39q-2 -24 -7 -24h-169q17 -47 62 -47q24 0 48 21h57q-33 -79 -108 -79q-82 0 -113 105v37q0 81 89 117zM2657 -38h5q77 0 107 -97l3 -26v-21l-3 -13h-170q18 -47 53 -47h12q21 0 42 21h59q-34 -79 -105 -79q-84 0 -115 102l-2 29q0 93 91 128zM2915 -38h4q54 0 78 -60
q7 -25 7 -82v-111h-54v138q0 48 -35 57h-11q-38 0 -43 -57v-138h-54v245h50v-21q25 29 58 29zM3508 -38h6q40 0 70 -40h2v32h47v-245h-47v31h-2q-34 -40 -78 -40q-71 0 -101 90l-4 37v12q0 82 77 117q11 6 30 6zM3781 -38h4q62 0 82 -78l3 -84v-91h-54v138q0 48 -38 57h-9
q-38 0 -42 -52v-143h-54v245h49v-21q26 29 59 29zM4133 -38h1q74 0 104 -93l4 -40q0 -88 -84 -126l-25 -3q-41 0 -68 34v-106h-52v326h47v-29q30 37 73 37zM4714 -38h5q34 0 63 -37q27 37 69 37h6q56 0 79 -66l6 -51v-136h-52v122q0 73 -39 73h-7q-35 0 -41 -50v-140l-5 -5
h-48v140q0 42 -31 55h-17q-40 0 -40 -77v-118h-51v245h47v-21q22 29 56 29zM359 -46h49l5 -6v-234l-5 -5h-49v245zM1297 -46h52v-245h-52v245zM1649 -46h52v-136q4 -60 43 -60h4q44 0 44 81v115h52v-245h-47v24h-5q-12 -33 -59 -33q-52 0 -79 63q-5 12 -5 34v157zM2458 -46
h51v-245h-51v245zM4515 -46h51v-245h-51v245zM1077 -169q0 -53 51 -73h12q54 0 66 66v10q0 53 -54 70h-17q-38 0 -58 -57v-16zM1438 -143h122q-18 47 -53 47h-7q-43 0 -62 -44v-3zM2599 -143h122q-21 47 -54 47h-7q-46 0 -61 -47zM3196 -158v-11q10 -73 61 -73h5q64 8 64 71
v5q0 45 -38 65l-18 5h-14q-60 -14 -60 -62zM3452 -173q14 -69 62 -69h11q41 0 59 60v13q-8 73 -56 73h-17q-47 0 -59 -73v-4zM4062 -158v-22q0 -47 59 -62h9q50 0 61 76q-13 70 -58 70h-15q-56 -17 -56 -62z" />
    <glyph glyph-name=".null" horiz-adv-x="0" 
 />
    <glyph glyph-name="nonmarkingreturn" horiz-adv-x="571" 
 />
    <glyph glyph-name="space" unicode=" " horiz-adv-x="410" 
 />
    <glyph glyph-name="exclam" unicode="!" horiz-adv-x="562" 
d="M572 1607q16 16 40 3.5t21 -50.5q-3 -29 -51 -206q-43 -158 -105 -377q-59 -206 -105 -365q-48 -162 -51 -169q-12 -25 -48.5 18.5t-36.5 77.5q-2 41 49 218q21 78 50 170.5t60 185.5q30 93 60 180.5t55 156.5q54 150 62 157zM255 359q43 -9 49 -52q4 -39 -19 -90
q-23 -49 -55 -85q-35 -38 -60 -39q-28 -2 -39 42q-10 40 -1 103q7 62 39 97q35 36 86 24z" />
    <glyph glyph-name="quotedbl" unicode="&#x22;" horiz-adv-x="744" 
d="M588 1396l51 19l13 -19l-152 -270l-41 -59l-21 -17l-22 -32l-12 -6l-14 -23h-11l-27 -33l-12 -4l-8 41l47 101l2 22l21 54l14 88l-12 40l14 60l10 16l148 29zM912 1396l50 19l13 -19l-27 -73l-59 -99l-35 -65l-30 -33l-42 -59l-20 -17l-22 -32l-13 -6l-14 -23h-11
l-26 -33l-12 -4l-8 41l46 101l2 22l21 54l15 88l-13 40l15 60l10 16l147 29z" />
    <glyph glyph-name="numbersign" unicode="#" horiz-adv-x="959" 
d="M452 1504q9 9 20.5 1.5t8.5 -29.5q-6 -22 -15 -54q-7 -21 15 -21q16 0 32 -0.5t32 -0.5q23 -2 36 33q34 96 39 101q9 10 20.5 2t8.5 -32q-6 -26 -21 -78q-7 -30 6 -30q48 -5 80 -6q34 -3 85 -11t83 -17t28 -17.5t-79 -12.5q-46 -3 -101 -6t-113 -6q-20 -1 -28 -27
q-7 -25 -23 -77q-6 -23 14 -24q25 -2 46.5 -3.5t36.5 -1.5q41 -3 101.5 -11.5t98 -18.5t32.5 -19.5t-93 -13.5q-52 -3 -115 -6.5t-130 -6.5q-23 0 -28 -19q-17 -56 -33 -107.5t-28 -92.5q-30 -101 -34 -109q-8 -17 -24 11.5t-14 50.5q1 27 35 140q7 24 15.5 50.5t17.5 53.5
q5 17 -23.5 17.5t-52.5 -0.5q-22 -4 -28 -22q-15 -48 -29.5 -92.5t-26.5 -80.5q-31 -96 -33 -101q-7 -15 -23 10.5t-15 46.5q1 25 35 130q12 37 27 81q8 24 -20 24q-92 -2 -145 1q-14 0 -61.5 30t-17.5 37q57 13 123.5 19t134.5 9q26 0 34 21q7 21 13 37t14 37q7 18 -13 18
q-69 0 -96 2q-12 0 -52 27.5t-15 33.5q75 19 191 25q25 1 33 22q31 80 34 83zM505 1215q18 54 27 80q8 21 -18 20q-14 -1 -28 -1.5t-27 -0.5q-26 0 -33 -21q-11 -33 -21 -69q-8 -24 12 -25q39 0 58 -1q24 0 30 18z" />
    <glyph glyph-name="dollar" unicode="$" horiz-adv-x="572" 
d="M476 1086q-4 -33 -40 4.5t-33 51.5q9 49 19.5 66t25.5 68q8 65 -56.5 27t-73.5 -47q-82 -79 -105 -147q-15 -43 28 -64.5t85 -38.5q69 -30 120 -67.5t0 -100.5q-45 -57 -151 -65q-16 -42 -25.5 -85t-24.5 -82q-9 -21 -33 -9t-23 41q3 12 13 50t19 89q-5 1 -26 9
q-45 23 -75 50.5t-70 39.5q-37 10 -9 22t54 6q24 -8 50.5 -26t42.5 -30q64 -46 149.5 -6t21.5 94q-22 18 -55 31.5t-60 23.5q-65 21 -110.5 45.5t-5.5 109.5q36 80 139 152q59 41 125 55q9 27 17.5 51.5t16.5 46.5q44 125 50 133q12 13 24 2.5t8 -42.5q-6 -47 -23 -94
t-29 -92q89 -13 77 -81q-6 -45 -28.5 -92t-28.5 -99z" />
    <glyph glyph-name="percent" unicode="%" horiz-adv-x="1379" 
d="M529 1147q0 102 -35 113t-62 -18.5t-23 -74.5t83 -54q37 -4 37 34zM790 556q-42 -153 2 -252q42 -94 134 -84q81 9 143.5 70.5t98.5 144.5q36 82 40.5 169.5t-28.5 147.5q-42 74 -103 74t-119 -41q-59 -42 -106 -107.5t-62 -121.5zM700 201q-60 86 -51.5 221.5
t71.5 245.5q61 109 163 180.5t220 59.5q147 -16 192 -162q19 -64 16 -139t-21 -142q-31 -111 -101 -199.5t-155 -130.5q-85 -44 -180 -31t-154 97zM659 1124q55 12 120 37q61 22 121 53q58 28 108 61q51 35 82 66q24 24 40 14.5t-9 -54.5q-9 -15 -53 -73.5t-110 -145.5
q-67 -88 -150 -195t-169 -216q-177 -228 -313 -399q-64 -81 -103.5 -131.5t-41.5 -51.5q-21 -19 -29 40t7 92q13 30 86 124q34 45 78.5 100t95.5 116t106.5 127t112.5 132q108 127 217 252q26 28 17.5 33t-38.5 -11q-106 -55 -205 -68q-25 -4 -36 -35q-38 -89 -106 -163
q-79 -86 -163 -111q-82 -25 -147 -5q-54 16 -93 64q-78 94 -47 249q24 131 114 253q78 106 199 146q129 40 217 -34q40 -35 57 -105q15 -66 6 -127q-5 -28 -2.5 -34.5t31.5 0.5zM494 1027q-165 12 -185 122t88 176q18 11 21 22t-24 7q-69 -13 -141 -97q-33 -38 -55 -76
q-24 -39 -35 -74q-40 -122 -15 -201q22 -71 86 -85q63 -17 132 28q76 46 125 142q2 4 7 19.5t-4 16.5z" />
    <glyph glyph-name="ampersand" unicode="&#x26;" horiz-adv-x="791" 
d="M515 1182q-9 -26 -22.5 -76.5t-11.5 -103.5q1 -54 27.5 -92.5t97.5 -32.5q21 1 63.5 3t51.5 -6q18 -18 -10.5 -49t-87.5 -28q-21 3 -32 1q-96 -9 -192.5 -110t-120.5 -170q-83 -232 32 -272q58 -21 129 9.5t122 95.5q42 53 69 109t66 88q23 18 43 22.5t30 8.5
q15 6 28.5 -8t-16.5 -51q-29 -36 -72.5 -80.5t-75.5 -102.5q-41 -72 -38.5 -151t26.5 -157q24 -77 52 -143.5t76 -139.5q12 -24 29.5 -45t-26.5 -18q-193 16 -255 164q-29 67 -28.5 149t21.5 167q10 41 -22 17q-73 -54 -151 -74.5t-155 20.5q-100 51 -113.5 148.5
t33.5 204.5q46 107 140 202q96 96 208 142q26 10 3 27q-96 68 -98.5 175t54 207t156 169t208.5 62q60 -4 94 -37.5t37 -72.5q10 -66 -35.5 -196.5t-44.5 -152.5q3 -57 -68 -12.5t-65 104.5q1 12 26 70.5t51.5 128.5t19.5 105t-54 17q-69 -27 -123 -100t-76 -135z" />
    <glyph glyph-name="quotesingle" unicode="'" horiz-adv-x="320" 
d="M451 1555q43 -10 48 -52q5 -39 -19 -90q-23 -49 -55 -85q-16 -18 -98 -110t-94 -92q-28 -2 -38 42q-4 20 61 128t69 138q7 62 39 97q34 36 87 24z" />
    <glyph glyph-name="parenleft" unicode="(" horiz-adv-x="363" 
d="M617 1656q18 17 67.5 10t-4.5 -54q-111 -99 -212 -264q-98 -161 -166 -344q-84 -219 -107 -421q-32 -294 29.5 -475t37.5 -209q-28 -32 -82 -6t-66 61q-96 268 -76 546q9 129 40 251t78 233q45 111 103 210t119 184t123 155t116 123z" />
    <glyph glyph-name="parenright" unicode=")" horiz-adv-x="760" 
d="M127 -79q-18 -18 -67.5 -12.5t4.5 54.5q91 81 174 205.5t149 267.5q138 298 170 568q34 294 -25.5 474t-35.5 209q27 33 81 8.5t66 -59.5q49 -141 65 -278t7 -266q-10 -131 -42 -253.5t-79 -233.5q-48 -113 -106 -213.5t-120 -187.5q-63 -87 -125 -158t-116 -125z" />
    <glyph glyph-name="asterisk" unicode="*" horiz-adv-x="1036" 
d="M629 1175q37 37 49 -35q5 -34 4 -77t-2 -104q-1 -40 31 -36q12 1 116 -4t108 -9q39 -16 -32 -67q-32 -23 -79 -48.5t-95 -49.5q-32 -16 -18 -55q37 -93 49 -159q7 -45 5 -63q-6 -58 -66 -10q-28 20 -68.5 59.5t-75.5 77.5q-18 25 -28.5 24t-36.5 -21q-69 -51 -108 -79
t-83.5 -61.5t-63 -16.5t9.5 58q33 51 64.5 102.5t71.5 108.5q26 37 -10 59q-85 47 -127 76q-40 28 -41 40q-2 21 26.5 28.5t57.5 9.5q28 2 71.5 3.5t78.5 0.5q50 -2 69 34q29 51 46 85t33 64q32 55 44 65z" />
    <glyph glyph-name="plus" unicode="+" horiz-adv-x="649" 
d="M421 754q-23 -2 -40 -3q-60 -5 -118 45.5t-39 63.5q45 30 174 33h27q3 34 7 66q7 49 54.5 106.5t47.5 3.5q2 -98 11 -179q44 -3 85 -8q49 -7 106.5 -54.5t3.5 -47.5q-99 -2 -182 -11q4 -36 5 -59q5 -60 -45.5 -118t-63.5 -39q-30 45 -32 174q-1 14 -1 27z" />
    <glyph glyph-name="comma" unicode="," horiz-adv-x="350" 
d="M281 313q42 -10 49 -53q4 -38 -19 -89q-21 -48 -55 -85q-16 -18 -98.5 -109.5t-94.5 -92.5q-28 -1 -39 42q-5 21 61.5 128.5t70.5 137.5q8 63 39 96q33 36 86 25z" />
    <glyph glyph-name="hyphen" unicode="-" horiz-adv-x="649" 
d="M224 860q45 30 174 32.5t232 -10.5q49 -7 106.5 -54.5t3.5 -47.5q-121 -3 -217 -15t-142 -14q-60 -5 -118 45.5t-39 63.5z" />
    <glyph glyph-name="hyphen" unicode="&#x2010;" horiz-adv-x="649" 
d="M224 860q45 30 174 32.5t232 -10.5q49 -7 106.5 -54.5t3.5 -47.5q-121 -3 -217 -15t-142 -14q-60 -5 -118 45.5t-39 63.5z" />
    <glyph glyph-name="period" unicode="." horiz-adv-x="292" 
d="M228 357q43 -11 48 -53q4 -37 -19 -90q-23 -49 -55 -85q-35 -38 -59 -39q-29 -2 -39 42q-10 43 -2 104q8 63 39 96q33 36 87 25z" />
    <glyph glyph-name="slash" unicode="/" horiz-adv-x="823" 
d="M1056 1574q62 25 10 -74q-10 -18 -64.5 -94.5t-136.5 -188.5q-83 -113 -185.5 -251t-207.5 -280q-106 -141 -207 -275.5t-179 -239.5q-80 -105 -129 -168.5t-51 -66.5q-25 -24 -38.5 51.5t4.5 118.5q12 30 68 109t140 187t187 236t210 258q106 129 207.5 250t182.5 216
q80 93 131.5 151t57.5 61z" />
    <glyph glyph-name="zero" unicode="0" horiz-adv-x="922" 
d="M300 255q141 -40 291 135q70 82 128 213.5t87 308.5q38 279 -11 433q-47 98 -104.5 106.5t-134.5 -35.5q-76 -61 -121 -127.5t-84 -135.5q-34 -59 -83 -189t-73 -271q-25 -141 -12.5 -268t117.5 -170zM472 103q-143 -49 -239 -7.5t-140 134.5q-66 137 -43 358
q12 183 85 384q70 197 175 353q112 169 246 234q86 38 189 24q74 -17 131 -84q82 -104 90 -317q5 -211 -57 -440q-68 -232 -175 -394q-132 -191 -262 -245z" />
    <glyph glyph-name="one" unicode="1" horiz-adv-x="429" 
d="M483 1627q56 45 49 -47q-2 -31 -67.5 -264t-143.5 -500q-78 -268 -143.5 -488t-68.5 -224q-13 -25 -61 20q-49 46 -50 81q-3 42 58 238q27 89 64 198t78 224q0 15 -10 15q-25 1 -49.5 11t-11.5 28q45 93 86 177t81 165q44 90 89.5 179t99.5 187z" />
    <glyph glyph-name="two" unicode="2" horiz-adv-x="828" 
d="M208 279q256 -11 374 -34q96 -32 92 -85q-7 -54 -46 -34q-127 7 -266 -1.5t-316 -44.5q-45 5 -80 46q-30 35 -26 58q10 66 110 188q45 54 238 257t251 277q58 73 113.5 146.5t88.5 148.5q71 164 -96 185q-75 9 -180.5 -10.5t-228.5 -57.5q-56 -18 -27.5 36.5t122.5 121.5
q75 53 173 84.5t209 34.5q169 7 211 -112q38 -112 -46 -274q-41 -79 -115.5 -178t-198.5 -244q-131 -151 -215.5 -258.5t-157.5 -224.5q-12 -25 17 -25z" />
    <glyph glyph-name="three" unicode="3" horiz-adv-x="955" 
d="M577 919q164 -42 228.5 -160t47.5 -252q-18 -135 -107.5 -253t-233.5 -159q-65 -19 -135 -21q-86 -2 -153 22q-77 27 -140.5 89t-102.5 190q-15 38 -25 54t3 30q19 11 51 -9.5t53 -50.5q78 -144 178 -180q89 -34 186 2q89 31 160 115q71 85 99 194q42 171 -42 264
q-90 101 -256 23q-27 -12 -69.5 42t36.5 81q64 21 134 53.5t130 71.5q138 88 160 175q31 128 -137 132q-77 1 -181 -21.5t-216 -58.5q-55 -18 -29.5 37t112.5 118q58 42 183.5 83.5t203.5 45.5q180 7 237 -129q55 -138 -73 -275q-42 -46 -110.5 -108t-190.5 -123
q-31 -15 -1 -22z" />
    <glyph glyph-name="four" unicode="4" horiz-adv-x="770" 
d="M823 1703q48 38 44 -45q-3 -33 -85 -317.5t-173 -593.5q-7 -25 14 -29q41 -7 81 -17q54 -15 54 -69.5t-36 -36.5q-27 11 -131 8q-25 -2 -33 -30q-63 -207 -107 -353.5t-46 -149.5q-14 -26 -61.5 18.5t-49.5 80.5q-3 29 27.5 137t80.5 257q10 29 -17 27
q-102 -9 -185 -20.5t-95 -20.5q-36 -26 -78 49.5t-18 96.5q1 0 1 1q132 258 275 448.5t148 196.5q19 24 34.5 6t4.5 -52q-30 -94 -113 -244t-156 -283q-15 -25 7 -23q107 6 224 -3q27 -3 35 18q55 160 115 325.5t111 301t86.5 223.5t41.5 93z" />
    <glyph glyph-name="five" unicode="5" horiz-adv-x="969" 
d="M123 811q30 122 85 260q45 118 98 228q45 93 83 162q15 30 25 46.5t11 18.5q23 40 41 18q8 -12 21 -7q95 30 196 34q48 1 97 -2t101 -7q62 -6 102 -67.5t5 -66.5q-48 -6 -109.5 -11t-130.5 -14t-140 -25.5t-138 -45.5q-33 -14 -41 -30t-20 -45q-37 -86 -69 -196
q-26 -85 -49 -187q-8 -36 26 -17q147 81 275.5 79t213.5 -66q84 -65 112 -181t-26 -260q-43 -110 -138 -204q-100 -96 -197 -124q-57 -18 -131 -22.5t-149 22.5t-142.5 93t-104.5 195q-25 83 -17 88q38 21 110 -101q74 -125 168 -156.5t184 -1.5q90 29 162.5 104.5
t103.5 165.5q78 231 -75 323q-69 39 -175.5 23t-236.5 -111q-6 -4 -28 -23q-31 -27 -73.5 17.5t-29.5 93.5z" />
    <glyph glyph-name="six" unicode="6" horiz-adv-x="906" 
d="M280 864q119 89 244 94q124 12 218 -57q93 -73 121 -185q33 -137 -16 -284q-49 -144 -170 -242q-131 -108 -283 -109q-98 0 -182 50q-121 72 -169 237q-38 145 -15 321q19 148 88 320q62 149 145 269q36 53 95 111.5t130 106.5q70 46 163.5 66t166.5 2q70 -24 104 -89
t28 -122q-7 -66 -35.5 -155.5t-31.5 -182.5q-2 -45 -62 -4.5t-73 97.5q-16 63 27 147.5t53 156.5q11 67 -48 78q-46 11 -146 -34q-123 -67 -237 -235q-46 -72 -80.5 -150.5t-56.5 -157.5q-6 -18 -11 -48t33 -1zM604 851q-79 44 -177 12q-107 -36 -203 -162q-20 -26 -24 -61
q-64 -349 132 -421q108 -31 231 56q79 69 125 188q42 117 26 222q-20 115 -110 166z" />
    <glyph glyph-name="seven" unicode="7" horiz-adv-x="788" 
d="M965 1444q-7 -10 -2 -8q-61 -32 -162 -161q-120 -156 -213.5 -335t-158.5 -359q-79 -216 -94 -389q-12 -113 -75 -86q-26 11 -48 36.5t-28 41.5q-32 74 8 223q47 180 145 356.5t210 329.5q135 185 285 328q22 19 -7 17q-65 -5 -150 -15.5t-163 -22.5q-78 -13 -135.5 -25
t-65.5 -18q-36 -30 -105.5 50t-53.5 96q33 32 134.5 48.5t221.5 20.5q120 3 235 -5t175 -26q42 -12 49.5 -45t-2.5 -52z" />
    <glyph glyph-name="eight" unicode="8" horiz-adv-x="970" 
d="M748 904q112 -64 150 -189q41 -134 -20 -291q-54 -139 -183 -237q-140 -105 -297 -102q-156 2 -261 115q-101 107 -101 247q0 160 85 287q88 130 239 184q24 7 1 24q-58 43 -89 104q-32 62 -32 127q0 172 130.5 297.5t326.5 119.5q183 -6 243.5 -155t6.5 -282
q-28 -68 -79 -122q-55 -61 -122 -98q-26 -14 2 -29zM537 990q86 -7 158 61q64 61 104 169t1 190q-43 93 -155 87q-101 -6 -172 -86q-63 -70 -79 -158q-20 -103 17 -176q38 -80 126 -87zM399 236q103 -9 190 68q75 66 116 181q70 156 11 277q-58 114 -192 107
q-121 -8 -206 -104q-76 -87 -97 -211q-21 -122 23 -211q48 -99 155 -107z" />
    <glyph glyph-name="nine" unicode="9" horiz-adv-x="851" 
d="M915 1111q-9 -81 -41.5 -192t-115.5 -275q-81 -154 -185 -284q-119 -149 -265 -264q-45 -36 -77.5 -24t-50.5 42t-21 62.5t11 41.5q173 104 290 227q120 123 174 255q17 44 -24 12q-77 -56 -155 -73q-193 -44 -290 88q-88 117 -63 316q26 199 149 347q61 74 147.5 128
t194.5 64q109 9 177.5 -31t104.5 -107q36 -68 42.5 -156t-2.5 -177zM646 1482q-128 14 -226 -62t-164 -195q-45 -109 -48 -226.5t51 -183.5q63 -56 174 -43.5t232 137.5q113 133 115 343.5t-134 229.5z" />
    <glyph glyph-name="colon" unicode=":" horiz-adv-x="425" 
d="M209 350q44 -10 49 -53q4 -38 -19 -89q-23 -49 -55 -85q-36 -39 -60 -39q-29 -2 -38 42q-11 38 -2 103q7 62 39 97q33 35 86 24zM352 941q44 -10 49 -53q4 -38 -19 -89q-21 -48 -55 -85q-36 -39 -60 -40q-29 -2 -38 43q-11 37 -2 103q7 63 39 96q33 36 86 25z" />
    <glyph glyph-name="semicolon" unicode=";" horiz-adv-x="464" 
d="M389 887q42 -10 49 -53q4 -37 -19 -90q-23 -49 -55 -85q-36 -38 -60 -39q-29 -2 -39 42q-9 40 -1 104q6 61 39 96q33 36 86 25zM246 296q42 -10 49 -53q4 -38 -19 -89q-20 -44 -55 -85q-16 -18 -98.5 -111.5t-94.5 -94.5q-28 -1 -38 42q-4 21 61.5 130.5t69.5 139.5
q8 63 39 96q33 36 86 25z" />
    <glyph glyph-name="less" unicode="&#x3c;" horiz-adv-x="860" 
d="M590 901l70 -8l196 -11l8 -12v-34l-26 -58l-10 -6l-136 -186l-86 -174l-2 -19l-12 -14l-31 -109v-61l13 -13l34 11l60 61l106 203l18 21l36 12l10 -4l4 -12l-168 -328l-50 -64l-2 -10l-88 -82l-65 -28l-55 6l-29 24l-21 43l-4 53l15 84l73 189l120 231l10 8l6 21l40 73
l-24 8l-26 -2l-56 7l-152 -5l-86 -174l-90 -200l-69 -182v-20l-15 -21l-8 -41l-12 -12l2 -15l-18 -45l2 -18l-12 -14l4 -17l-6 -2l-42 -139l-28 -48l-43 -40l-31 -19l-20 5l-21 20l-10 30l8 90l156 398l135 286l-4 9l8 4l80 157l-35 2l-35 -12l-30 14l-4 19l30 72l58 77
l24 13l18 -7l78 5l136 207l24 22l84 115l47 53v8h8l37 37l76 59l38 15l116 12l42 -21l40 -46l30 -90l-2 -113l-33 -93l-45 -71l-62 -53l-30 -2l-20 10l-4 14l-13 6l-19 60l-2 62l11 38l71 80l15 4l8 -8l9 -22l-5 -48l15 -47l6 3l16 24l16 72l-6 55l-26 16l-58 7l-70 -13
l-16 -12l-90 -41l-10 -12h-8l-98 -103l-111 -178l47 2l62 -10z" />
    <glyph glyph-name="equal" unicode="=" horiz-adv-x="1433" 
d="M-11 -103q285 370 595.5 728.5t618.5 714.5q172 190 209 190q6 0 89.5 -13t140.5 -121q9 -14 -8 -14q-123 22 -339.5 -159t-440 -424.5t-409 -481t-244.5 -327.5q-36 -44 -75.5 -120t-42.5 -86q-15 -42 -61.5 19t-32.5 94z" />
    <glyph glyph-name="greater" unicode="&#x3e;" horiz-adv-x="758" 
d="M987 1321v-19l-514 -1296l-55 -43l-54 -8l-36 6l-11 33l3 22l56 136l46 90l16 55l49 103l11 36l122 272l4 29l64 143l-2 6l10 15l98 269l-18 50l-37 15h-39l-88 -37l-88 -123l-34 -75l4 -7l-13 -18l2 -5l-17 -16l-24 -57l66 2l78 15l12 14l18 -2l6 -21l-112 -168l-37 -23
l-63 5l-48 -3l-88 -174l-88 -200l-70 -182l-2 -20l-12 -21l-10 -41l-10 -12l2 -15l-18 -45v-18l-11 -14l4 -17l-6 -2l-41 -139l-28 -48l-44 -40l-30 -19l-20 5l-21 20l-13 30l10 90l156 398l134 286l-2 9l8 4l72 157l-28 2l-34 -12l-31 14l-4 19l31 72l57 77l23 13l20 -7
l58 5l120 229l39 56l-2 10l33 49l88 105l84 71l32 15l40 -2l40 -19l44 -59l10 -25l14 31l24 18l60 18l33 -12l8 -24l-2 -31h-4z" />
    <glyph glyph-name="question" unicode="?" horiz-adv-x="933" 
d="M236 706q27 35 86.5 86.5t125.5 111.5q65 59 130.5 135t92.5 138q49 114 -13 156.5t-164 45.5q-104 2 -213.5 -20t-156.5 -37q-56 -18 -26.5 35.5t117.5 118.5q49 36 150 70.5t206 44.5q105 9 191 -17t106 -111q21 -88 -18 -177t-105 -173q-67 -84 -153 -173.5
t-147 -154.5q-123 -131 -132 -227t-26 -129q-14 -25 -40.5 -7t-43.5 62q-18 42 -15.5 102t48.5 120zM221 346q41 -10 48 -53q4 -39 -17 -89q-22 -50 -54 -85q-34 -39 -62 -40q-28 -2 -39 45q-12 46 -3 100q10 61 39 94q34 39 88 28z" />
    <glyph glyph-name="at" unicode="@" horiz-adv-x="2063" 
d="M258 620q23 201 146 377.5t281 295.5q174 131 388 190.5t429 -2.5q224 -66 339 -192.5t139 -282.5t-34.5 -325t-181.5 -317q-69 -82 -190 -144.5t-241 -30.5q-149 39 -160 158.5t14 251.5q4 24 -8 9q-14 -17 -31 -33q-16 -16 -76 -94q-29 -36 -58.5 -73.5t-62.5 -75.5
q-65 -76 -125 -131q-61 -56 -91 -43q-129 53 -115 206q13 154 101 311q90 162 217 283q126 124 230 124q76 -3 143 -40q66 -38 143 -121q11 -10 -4 -10q-64 -7 -105 -22q-18 -5 0 -9q44 -17 135 -74q93 -58 106 -89q1 -5 -4 -6q-47 -13 -115 -114q-71 -102 -78 -201
q12 -82 54 -82t90 39q44 36 91 97q44 57 62 92q37 72 78 192q69 204 18.5 387.5t-283.5 237.5q-280 64 -557 -131t-388 -436q-114 -245 -87 -521t328 -382q219 -77 507 32q287 109 516 455q27 31 78 -48q50 -80 24 -127q-141 -246 -468.5 -350.5t-591.5 -68.5
q-358 51 -499.5 274t-102.5 564zM1240 845q-107 -64 -238 -190q-127 -123 -157 -246q-14 -54 30 -15q41 35 61 57q192 206 311 374q29 44 -7 20z" />
    <glyph glyph-name="A" unicode="A" 
d="M1512 1542q36 -37 60 -117t21 -100q-14 -72 -33.5 -176.5t-43.5 -225.5t-49.5 -251.5t-50.5 -255.5q-25 -126 -48 -239t-41 -198q-40 -186 -43 -190q-20 -17 -67 23q-48 42 -52 76q-5 40 31 226q34 183 88 422q5 22 -20 21q-28 -2 -61 -4t-70 -4q-37 -3 -77.5 -5
t-82.5 -5q-18 0 -27 -14q-93 -145 -190 -272.5t-194 -223.5q-99 -96 -194 -155q-101 -59 -191 -67q-79 -7 -129.5 19.5t-75.5 61.5q-24 36 -25.5 65.5t17.5 28.5q210 -8 428 138q194 133 398 391q14 17 -7 17q-56 0 -117.5 -4t-121.5 -9t-116.5 -9t-104.5 -3
q-74 5 -113 46.5t-12 53.5q67 27 272 41q196 12 411 11q16 -2 26 12q22 30 64 92q121 177 243 376q128 213 222 400q27 55 76 7zM1312 652q21 89 43.5 177.5t43.5 171.5q21 81 40 154.5t35 132.5q20 69 8 153q-6 37 -21 8q-47 -92 -98.5 -189t-105.5 -196
q-54 -100 -110.5 -200t-111.5 -196q-10 -16 12 -17q25 -2 49.5 -3t51.5 -2q27 -3 59 -5.5t74 -6.5q24 -3 31 18z" />
    <glyph glyph-name="B" unicode="B" horiz-adv-x="1047" 
d="M656 1667q50 50 41 -54q-2 -13 -19 -87q-6 -20 21 -21q176 -5 297 -35q146 -40 189 -121q49 -83 7 -184.5t-141 -191.5q-100 -90 -232.5 -166t-246.5 -132q-35 -17 3 -20q190 -17 323 -91q127 -73 157 -175q36 -129 -60 -270t-236 -225q-141 -85 -281.5 -79.5
t-192.5 168.5q-18 55 -35 -9q-39 -149 -46 -160q-15 -29 -61 24q-46 54 -46 96q-2 45 48 215q22 81 52.5 181t66.5 211q10 32 -5 53q-40 50 -20 58q20 7 46 19q22 8 32 34q53 160 106 318q26 77 51.5 150.5t48.5 139.5q9 26 -17 23q-84 -11 -156.5 -27t-127.5 -31
q-55 -16 -90 -28t-41 -14q-46 -21 -101.5 46t-35.5 85q43 36 238 81q88 19 188 34.5t189 21.5q23 1 31 23q50 135 56 140zM625 1321q-15 -57 -33 -121t-36 -133q-19 -69 -39 -141.5t-40 -145.5q-11 -36 23 -17q111 60 231.5 130t212.5 138q91 66 136 125.5t7 98.5
q-56 55 -168 78q-109 23 -262 16q-26 -2 -32 -28zM397 498q-19 -62 -35 -122t-31 -115q-12 -45 -19 -78.5t5 -79.5q27 -103 119.5 -111t197.5 40t193.5 136t108.5 175q12 60 -36 99.5t-125 63.5q-78 23 -168 30.5t-159 2.5q-40 -4 -51 -41z" />
    <glyph glyph-name="C" unicode="C" horiz-adv-x="975" 
d="M262 663q-92 -297 -47 -499q42 -188 179 -212q178 -32 396 145q103 83 191.5 207.5t138.5 248.5q18 49 45.5 20.5t-12.5 -100.5q-62 -122 -161 -269t-215 -255q-129 -120 -250 -144q-142 -28 -276 73q-149 112 -193.5 285t-18.5 362t107 373.5t186 319.5q81 102 147 157
t121 91t114 59.5t136 35t148 1.5q91 -21 126 -84q55 -86 -39 -356q-42 -118 -62 -207.5t-27 -143.5q-8 -51 -78 -7q-70 47 -77 113q-5 40 22.5 111.5t63.5 152.5q34 79 64 156.5t26 130.5q-13 72 -80 72t-129 -30q-110 -53 -195 -140.5t-150 -195.5q-66 -108 -115 -229.5
t-86 -241.5z" />
    <glyph glyph-name="D" unicode="D" horiz-adv-x="1179" 
d="M654 1685q51 49 42 -55q-5 -27 -21 -94q-7 -25 26 -25q77 0 155 -6q397 -31 478 -236t-12 -463q-95 -258 -292.5 -507.5t-358.5 -366.5q-142 -104 -259.5 -126t-150.5 122q-15 54 -31 -3q-38 -129 -36 -125q-16 -31 -62.5 24.5t-46.5 97.5q-1 42 40.5 191t104.5 349
t137 420t138 402q7 21 6.5 33t-31.5 6q-60 -12 -113.5 -25.5t-98.5 -26.5q-45 -14 -82 -26t-64 -20q-30 -10 -59.5 9.5t-49.5 49.5q-20 28 -26.5 56t8.5 36q106 48 254 83q144 34 306 47q29 1 41 35q51 138 58 144zM615 1306q-29 -106 -64 -233t-71 -261
q-38 -135 -75.5 -269t-70.5 -254q-17 -58 -30 -124.5t15 -124.5q28 -60 105 -49q69 11 163 75q149 116 319.5 305t271.5 381t86.5 351t-235.5 215q-169 42 -362 29q-43 -3 -52 -41z" />
    <glyph glyph-name="E" unicode="E" horiz-adv-x="755" 
d="M527 1711q50 48 41 -54q-2 -16 -22 -90q-8 -30 24 -28q83 3 165 1t156 -5q165 -7 254 -22q84 -16 124 -63t-22 -38q-5 0 -82 -4q-36 -3 -82.5 -6.5t-101.5 -6.5q-55 -5 -116 -9.5t-124 -9.5q-54 -4 -108.5 -8.5t-105.5 -7.5q-39 -4 -48 -39q-16 -57 -33.5 -119
t-35.5 -128q-20 -69 -40 -141.5t-40 -144.5q-8 -30 25 -30q79 0 117 -2q81 -4 114 -8q51 -6 107 -54q58 -48 4 -48q-41 -1 -92.5 -3.5t-106.5 -5.5q-45 -3 -90 -6.5t-86 -6.5q-38 -3 -47 -38q-20 -75 -38 -144.5t-33 -132.5q-33 -128 -54 -240q-5 -27 -3.5 -64.5t47.5 -44.5
q172 -22 368 1q191 22 270 68q58 34 32 -28q-28 -86 -117 -129q-63 -36 -173.5 -58t-227 -23.5t-188.5 47.5q-22 15 -57 48q-27 26 -64 93.5t-38 112.5q-1 41 38 187q34 124 92 303q8 26 -20 35q-52 15 -91.5 54t-24.5 50q16 12 70 20q47 7 93 10q29 2 38 31q23 69 47 140
t48 140q23 68 45.5 133t44.5 125q9 29 -28 27q-45 -4 -83.5 -6.5t-68.5 -4.5q-82 -5 -89 -4q-75 7 -115.5 64t-14.5 73q42 25 180 44q57 8 125.5 13t143.5 9q27 1 40 33q48 133 58 143z" />
    <glyph glyph-name="F" unicode="F" horiz-adv-x="688" 
d="M585 1686q50 50 41 -54q-1 -9 -18 -82q-7 -25 22 -25q178 1 330 -6q164 -9 236 -23q82 -16 124 -63q40 -47 -22 -38q-8 0 -76 -4t-170 -11t-225.5 -16t-241.5 -17q-30 -3 -37 -29q-15 -57 -33.5 -119.5t-36.5 -128.5q-19 -67 -38 -135t-37 -139q-6 -23 20 -24
q113 -2 172 -9q50 -7 105 -51.5t1 -47.5q-62 -4 -147 -11.5t-168 -13.5q-26 -2 -32 -27q-42 -151 -82 -300.5t-70 -257.5q-31 -106 -50 -172t-20 -69q-19 -39 -63 30.5t-44 90.5q0 43 52 229q24 86 57 202t71 233q8 27 -17 25q-10 -1 -21.5 -2.5t-16.5 -1.5q-60 -4 -113 48
t-36 65q21 14 87 22.5t150 11.5q22 1 29 23q22 68 45 135.5t46 133.5q39 120 85 248q11 31 -25 29q-115 -9 -175 -11q-71 -5 -82 -3q-68 5 -116 64q-45 56 -15 73q48 27 177 43q121 16 292 21q21 1 31 27q48 131 55 137z" />
    <glyph glyph-name="G" unicode="G" horiz-adv-x="1034" 
d="M1018 540q-66 -158 -109 -298t-71 -258q-53 -232 -43 -362q2 -27 -27 -25.5t-76 60.5t-45 101q1 24 14 81.5t49 170.5q33 107 87 261q6 18 1 20t-14 -13q-63 -111 -130 -201.5t-139 -142.5q-158 -116 -316 -2q-148 105 -183.5 278t-0.5 365q36 191 108.5 349.5
t199.5 320.5q100 118 213 198.5t235 103.5q231 50 320 -76q21 -33 28 -58q5 -36 0 -70q-12 -66 -51.5 -170.5t-70.5 -251.5q-8 -46 -62 -8q-65 45 -82 113q-2 35 27.5 100.5t58.5 137.5q37 86 44 137t-23 73q-72 39 -190 -20q-184 -103 -324 -318q-59 -85 -101.5 -181.5
t-81.5 -206.5q-94 -287 -86 -502q6 -224 122 -250q57 -13 137.5 40.5t163.5 145.5q177 197 282 424q17 37 -27 34q-51 -6 -90 -10.5t-60 -5.5q-60 -5 -119 46.5t-41 63.5q32 18 87 27t120 12q93 3 171.5 -0.5t133.5 -9.5q101 -17 135.5 -62t-63.5 -48q-7 0 -14.5 -1
t-13.5 -1q-32 0 -53 -45t-30 -66z" />
    <glyph glyph-name="H" unicode="H" horiz-adv-x="1149" 
d="M1345 1684q19 18 36.5 6t14.5 -55q-3 -18 -26 -110t-59 -229q-37 -138 -82.5 -306.5t-92.5 -338.5q-7 -25 14 -31q57 -20 73.5 -45.5t-29.5 -20.5q-10 0 -64 -3q-23 -3 -29 -29q-39 -141 -74 -267.5t-62 -222.5q-57 -200 -61 -213q-14 -29 -65 24q-52 52 -53 92
q0 21 12 70q5 25 13.5 57t19.5 71q38 139 111 370q11 35 -30 32q-33 -3 -67 -5.5t-70 -4.5q-36 -3 -72.5 -5.5t-72.5 -5.5q-30 -3 -38 -34q-45 -167 -86.5 -322.5t-74.5 -275.5q-33 -121 -53.5 -195t-21.5 -77q-15 -31 -80 26q-25 23 -45 51t-20 49q-2 44 61 258
q29 97 67.5 218.5t82.5 253.5q11 33 -20 31q-69 -6 -129 -9.5t-105 -6.5q-104 -7 -111 -6q-67 4 -115 50q-43 43 -15 58q52 24 197 40q136 14 324 21q34 1 45 31q57 168 112.5 327t101.5 285q45 126 74.5 204t35.5 83q50 50 41 -54q-2 -17 -20 -92.5t-47 -190.5
q-63 -247 -146 -558q-8 -30 26 -30q39 0 77 -0.5t74 -0.5q90 -2 133 -4q31 -2 41 29q57 177 116.5 355.5t110.5 322.5q49 144 82.5 236t39.5 97z" />
    <glyph glyph-name="I" unicode="I" horiz-adv-x="469" 
d="M628 1554q47 -3 61.5 -37.5t11.5 -68.5q-3 -38 -74 -296t-155 -553q-84 -296 -154 -537.5t-73 -247.5q-15 -31 -61 23.5t-46 96.5q-1 50 53.5 231.5t129.5 406.5t155 447.5t131 354.5q17 44 -10 45q-40 1 -100 -58.5t-126 -152.5q-66 -94 -131 -209t-115 -225
q-40 -95 -60 -100t-26 37t1 109t22 118q34 134 106.5 248t156.5 197q180 177 303 171z" />
    <glyph glyph-name="J" unicode="J" horiz-adv-x="870" 
d="M975 1562q58 0 74.5 -61.5t13.5 -104.5q-3 -25 -33 -146t-75 -289q-45 -170 -98 -364.5t-101 -366.5q-9 -28 19 -30q41 -5 58 -5q126 -12 114.5 -39.5t-91.5 -26.5q-60 0 -91 1q-37 0 -46 -34q-34 -121 -77.5 -289t-107.5 -286q-41 -71 -93 -89q-48 -14 -114.5 43
t-130.5 149q-82 118 -134 243q-53 126 -28 198.5t101 108.5t190.5 42.5t239.5 -0.5q32 -2 38 18q3 11 -18 27q-71 49 -171 104.5t-125 157.5q-36 146 37 326.5t190 338.5t247.5 266t211.5 108zM596 321q26 -17 39 18q45 129 93 273t93 280q45 135 85 252.5t70 195.5
q6 17 8.5 44t-33.5 24q-41 -4 -102 -64t-124 -144q-136 -182 -207 -342q-133 -299 -71 -394t149 -143zM561 88q11 44 -39 42q-93 -4 -172 -20t-127 -54q-52 -40 -53 -117.5t27 -155.5q27 -76 72.5 -131t87.5 -47q42 9 76 77t61 155q19 66 35.5 133t31.5 118z" />
    <glyph glyph-name="K" unicode="K" horiz-adv-x="940" 
d="M461 260q-79 140 -93 168q-21 42 -32 0q-127 -462 -142 -521t-23 -94q-16 -30 -76 17q-62 47 -62 89q-2 45 53 232q24 81 55.5 180.5t74.5 239.5q10 31 -3 47q-22 26 -13 37.5t45 30.5q12 11 21 38q50 142 108.5 310t167.5 462l58 156q15 31 40 20.5t18 -47.5
q-9 -32 -30.5 -114t-52.5 -205q-30 -114 -59 -217.5t-68 -249.5q-7 -27 2 -26t32 23q53 52 307 287q273 269 402.5 391t139.5 128q23 13 49.5 -5.5t2.5 -44.5q-19 -20 -153.5 -160t-342.5 -378q-267 -285 -321.5 -344.5t-106.5 -125.5q-20 -26 -6 -53q36 -68 99 -168
t123 -178q66 -87 146.5 -160t158.5 -112q75 -37 205 -23q37 3 38.5 -17.5t-71.5 -52.5q-111 -50 -204 -44q-86 7 -161 59q-71 51 -159 168t-167 257z" />
    <glyph glyph-name="L" unicode="L" horiz-adv-x="592" 
d="M585 1729q51 49 42 -54q-3 -30 -62.5 -249t-133.5 -495q-75 -277 -142.5 -545.5t-85.5 -397.5q-2 -9 -2 -32.5t17 -26.5q73 -13 130.5 -12t138.5 13q181 26 246 77q43 34 44.5 -28t-49.5 -115q-38 -31 -120.5 -69t-202.5 -49t-220 46q-35 27 -99 120q-27 39 -47.5 74
t-20.5 52q-2 60 82.5 328t189.5 568q104 299 194.5 542t100.5 253z" />
    <glyph glyph-name="M" unicode="M" horiz-adv-x="1737" 
d="M1183 1526q48 81 103.5 -31t7.5 -288q-25 -90 -49.5 -211t-46.5 -253q-20 -109 -36.5 -218t-31.5 -206q-3 -23 6 -23t18 20q83 176 179 384q54 117 107 231.5t101 217.5q71 154 118 270.5t77 170.5q27 49 55.5 35t50.5 -55.5t33.5 -91.5t6.5 -71q-42 -154 -85.5 -341.5
t-74.5 -389.5q-33 -202 -46 -409t-7 -316q6 -102 25 -167.5t-9 -65t-69 61.5q-42 62 -86 152.5t-38 147.5q18 184 49 359.5t69 340.5q37 165 69.5 290.5t70.5 269.5q9 35 -2 41t-24 -23q-41 -90 -113 -238.5t-159 -349.5q-107 -244 -216 -506.5t-181 -478.5
q-9 -20 -32.5 -18.5t-39.5 26.5q-29 29 -46.5 79.5t-18.5 62.5q-4 40 21.5 184.5t71.5 357.5q66 294 103 462t69 321q7 38 -23 29q-102 -243 -201.5 -498.5t-208.5 -467.5q-110 -213 -235 -354t-278 -155q-78 -7 -130 19.5t-79 61.5t-29.5 64.5t15.5 28.5q256 -10 443 177
t325 445q136 256 231.5 517.5t169.5 398.5z" />
    <glyph glyph-name="N" unicode="N" horiz-adv-x="1047" 
d="M557 1506q36 35 81 -19t55 -78q39 -208 55.5 -485t33.5 -529q2 -29 15 -29.5t22 26.5l243 774q63 183 123 374t67 197q52 50 41 -54q-3 -38 -75.5 -330t-156.5 -628q-86 -337 -157 -612.5t-73 -281.5q-11 -39 -41 -22t-68 59t-67.5 93t-29.5 82q5 564 -4.5 882t-25.5 369
q-12 35 -27 18q-37 -156 -104 -423t-133 -525q-67 -260 -117 -450.5t-52 -196.5q-8 -15 -29.5 2.5t-44.5 47.5q-59 80 -60 124q-1 60 77.5 316t175.5 542q97 285 181.5 516t94.5 241z" />
    <glyph glyph-name="O" unicode="O" horiz-adv-x="1011" 
d="M284 779q-136 -414 -71.5 -616t211.5 -207q151 -3 320.5 226.5t244.5 564.5q42 244 0.5 326.5t-116.5 70.5q-98 -17 -188.5 -142t-118.5 -210q-13 -39 -26 -30.5t-13 35.5q-5 115 42 236.5t131 196.5q118 102 243 93q26 -3 28 24q6 136 -72.5 141t-188.5 -81
q-117 -91 -238.5 -259.5t-187.5 -368.5zM222 -204q-132 60 -171.5 248.5t-5.5 392.5q34 203 114.5 403.5t169.5 337.5q104 161 232 263t242 127q113 24 191.5 -37t82.5 -226q0 -15 -7 -34q-4 -14 14 -60q65 -168 15 -418t-152 -469q-35 -74 -102.5 -188.5t-162 -209.5
t-211.5 -142.5t-249 12.5z" />
    <glyph glyph-name="P" unicode="P" horiz-adv-x="990" 
d="M691 1672q50 48 41 -54q-3 -22 -19 -84q-6 -24 11 -25q225 -7 337 -51.5t157 -128.5q64 -119 -10.5 -272.5t-212.5 -273.5q-128 -110 -276 -184t-251 -95q-37 -9 -47 -44q-35 -126 -66.5 -237.5t-55.5 -197.5q-27 -92 -43.5 -147.5t-16.5 -58.5q-15 -30 -61 23
q-46 54 -46 97q-2 42 49 220q40 145 114 374q8 27 -12 48q-32 30 -45.5 57t52.5 14q10 -2 15 -2q26 -4 36 26q27 84 55.5 169t56.5 168q26 78 51.5 151.5t49.5 139.5q14 40 -27 35q-75 -11 -142 -25.5t-119 -28.5q-59 -17 -96.5 -29.5t-43.5 -15.5q-24 -10 -52 6t-50 41
q-57 65 -35 85q19 17 88 39.5t161 43.5q84 18 177 32.5t192 21.5q20 1 26 15q51 141 58 148zM658 1318q-37 -131 -76 -281q-22 -79 -45 -162l-46 -166q-11 -38 33 -22q234 82 433 250q101 85 152.5 172t11.5 151q-34 54 -165 79q-111 21 -257 15q-32 -2 -41 -36z" />
    <glyph glyph-name="Q" unicode="Q" horiz-adv-x="1073" 
d="M309 788q-135 -379 -88 -581t177 -233q28 -7 27 17q-9 173 7.5 357.5t58.5 348.5q18 70 60.5 181t106 213t150.5 173t200 64q26 -3 29 29q5 137 -92 136q-61 -1 -147.5 -57t-176.5 -149q-93 -97 -177 -226t-135 -273zM605 11q150 81 270 270q61 97 108.5 224.5
t70.5 284.5q33 230 -6.5 301.5t-125.5 62.5q-74 -18 -127.5 -70.5t-100.5 -127.5q-67 -123 -111 -370.5t-2 -563.5q4 -22 24 -11zM622 -168q17 -92 36 -149t57 -144q51 -90 81.5 -127t-41.5 -25q-132 37 -201 135q-65 91 -97 231q-8 32 -32 27q-113 -19 -200 33
q-144 84 -176.5 256.5t3.5 375.5q36 202 109 380t192 358q134 185 285.5 287.5t279.5 107.5q98 3 163 -61.5t68 -207.5q0 -27 -5 -39.5t6 -37.5q70 -170 -6 -505q-18 -82 -47.5 -177.5t-72.5 -193.5q-45 -99 -105 -193t-139 -172q-69 -66 -139 -112q-27 -18 -19 -47z" />
    <glyph glyph-name="R" unicode="R" horiz-adv-x="1034" 
d="M415 312q-14 31 -26 -11q-30 -105 -52.5 -182.5t-40.5 -141.5q-43 -151 -47 -164q-16 -30 -61 24q-46 54 -46 97q-2 41 45 205q36 134 95 312q9 34 -14 67q-30 48 -2 54.5t48 12.5q10 3 19 27q59 186 123 374q59 175 108 315q14 37 -19 34q-89 -14 -132 -23
q-60 -12 -137 -33q-60 -16 -97 -28.5t-43 -15.5q-24 -11 -52 5.5t-50 41.5q-60 64 -35 84q19 18 87.5 40t161.5 43q87 19 183 33.5t183 20.5q23 1 33 29q48 129 54 134q50 50 41 -54q-2 -20 -18 -82q-7 -25 20 -26q174 -5 292 -33q149 -35 210 -145q73 -161 -13.5 -300
t-215.5 -253q-113 -105 -256.5 -184.5t-271.5 -123.5q-21 -8 -8 -28q112 -216 244 -355q110 -108 210 -158q71 -28 141 -36q119 -1 99 -17t-68 -39q-150 -69 -258 -35t-187 124q-72 79 -129.5 176.5t-117.5 214.5zM490 661q-12 -38 16 -25q122 44 241.5 118.5t214.5 159.5
q103 93 156 184.5t14 156.5q-36 54 -166 79q-108 19 -249 15q-40 -2 -50 -39q-18 -66 -38.5 -141.5t-42.5 -156.5q-23 -84 -47 -170.5t-49 -180.5z" />
    <glyph glyph-name="S" unicode="S" horiz-adv-x="1119" 
d="M1082 616q-11 -67 -75 -8q-66 55 -64 138q6 79 95 247t153 344q31 82 -4 126q-40 40 -124 24q-121 -19 -322 -231q-95 -103 -175 -223t-116 -228q-38 -110 35 -187q71 -58 219 -127q277 -136 345.5 -247.5t-28.5 -263.5q-147 -186 -358 -212t-335 79q-66 61 -134 147.5
t-148 122.5q-92 32 -36 47.5t120 -6.5q60 -21 125.5 -87t104.5 -100q100 -90 233.5 -58t221.5 110q86 78 83 144t-56 111q-32 27 -119.5 77t-217.5 111q-351 163 -223 458q51 107 153.5 230t222.5 220q100 84 218 140.5t223 57.5q126 -2 181 -64.5t48 -178.5
q-5 -96 -72.5 -248t-104 -244.5t-69.5 -220.5z" />
    <glyph glyph-name="T" unicode="T" horiz-adv-x="349" 
d="M584 1657q52 48 41 -54q-2 -19 -20 -92q-6 -22 17 -22q87 0 172.5 -2.5t161.5 -6.5q158 -10 240 -26t123 -64q39 -48 -22 -38q-7 1 -76.5 -2.5t-173.5 -9.5q-105 -7 -230 -15t-244 -14q-21 -2 -26 -24q-52 -194 -122.5 -448.5t-134.5 -482.5q-65 -229 -110.5 -388
t-47.5 -164q-15 -30 -61 24q-45 52 -46 96q-1 42 41 191t105 348q62 198 135.5 416.5t136.5 397.5q8 26 -16 25q-54 -3 -100.5 -6t-80.5 -4q-77 -4 -85 -2q-75 8 -116.5 65.5t-14.5 73.5q42 24 177 41q61 7 135 11t155 7q20 0 29 21q50 138 58 148z" />
    <glyph glyph-name="U" unicode="U" horiz-adv-x="998" 
d="M596 1541q54 0 78.5 -44t6.5 -84q-36 -75 -95.5 -218.5t-122.5 -311.5q-63 -169 -117.5 -343.5t-78.5 -312.5q-30 -174 6.5 -232t103.5 -41q66 18 146 92.5t137 168.5q76 123 130.5 247.5t100.5 259.5q102 302 194.5 566.5t104.5 275.5q20 19 37 2t14 -62
q-3 -36 -74.5 -305t-156.5 -578q-86 -310 -157.5 -563.5t-74.5 -259.5q-15 -28 -66 25q-52 54 -53 94q-2 18 6 55q3 19 9 41.5t13 49.5q5 18 0.5 28.5t-17.5 -13.5q-64 -113 -141.5 -191t-154.5 -73q-102 7 -157.5 72t-78 156t-19 193t20.5 183q46 221 171.5 478.5
t238.5 456.5q17 30 21.5 50t-46.5 -9q-48 -27 -107.5 -89t-119.5 -143q-60 -83 -117 -176.5t-94 -184.5q-33 -81 -52 -85t-26.5 33t-4 98t16.5 110q32 125 103.5 232t156.5 185q177 163 315 167z" />
    <glyph glyph-name="V" unicode="V" horiz-adv-x="857" 
d="M416 188q4 -39 16.5 -32.5t23.5 35.5q190 449 421 792q149 241 305 421t300 284q41 30 51.5 -9.5t-5.5 -48.5q-28 -18 -101.5 -96t-175.5 -212t-202 -298.5t-201.5 -385t-182 -437.5t-111.5 -334q-16 -101 -70 -35q-23 27 -43.5 65.5t-31.5 55.5q-75 117 -87.5 334
t35.5 428.5t116 417.5q74 230 -61 241q-76 9 -184.5 -5t-228.5 -52q-55 -18 -27 36.5t87 88.5q87 41 202.5 71t209.5 33q164 6 198 -119q13 -54 2.5 -117.5t-31.5 -118.5q-27 -72 -70.5 -198.5t-81.5 -267.5q-39 -142 -63.5 -278.5t-8.5 -258.5z" />
    <glyph glyph-name="W" unicode="W" horiz-adv-x="1656" 
d="M1027 133q-17 -143 38 -82q112 110 264 319t284.5 439t215.5 442t58 329q-30 135 30 114t50 -147q-17 -195 -102 -435.5t-207 -479t-266.5 -452.5t-278.5 -357q-36 -38 -115.5 68.5t-92.5 140.5q-15 63 15 244.5t100 460.5q3 20 -9.5 19t-17.5 -15q-17 -49 -71.5 -173.5
t-125.5 -267t-147 -274.5t-133 -196q-1 -1 -17 -14.5t-21 -14.5q-50 -10 -112.5 146.5t3.5 445.5q42 183 115.5 435t92 401t-93.5 169q-81 16 -210.5 -9.5t-269.5 -81.5q-54 -18 -31.5 35.5t110.5 97.5q130 72 243.5 104t192.5 34q152 5 209.5 -82.5t26.5 -212.5
q-20 -103 -162.5 -565t-124.5 -616q2 -15 13 -32t28 1q72 78 185.5 267t210.5 398q96 208 169 383t87 219q17 55 85.5 1.5t48.5 -92.5l-128 -439q-102 -403 -139 -675z" />
    <glyph glyph-name="X" unicode="X" horiz-adv-x="1120" 
d="M1399 1599q7 42 49 39q40 -12 20 -60q-41 -102 -178.5 -309t-311.5 -443q-24 -31 -19 -74q33 -333 61 -635t28 -309q-3 -30 -69.5 24.5t-83.5 96.5q-20 50 -35 228.5t-25 407.5q-4 62 -39 16q-214 -282 -397.5 -505t-237.5 -269q-62 -51 -97 -26.5t-49.5 75t-10 100.5
t23.5 51q60 1 290 249t479 546q26 30 25 77q-8 242 -9.5 425t4.5 192q32 50 62 -54q6 -24 21 -143.5t33 -287.5q3 -41 28 -10q183 227 307 394.5t131 203.5z" />
    <glyph glyph-name="Y" unicode="Y" horiz-adv-x="1209" 
d="M1165 875q285 412 393.5 569t117.5 165q24 19 54.5 -1.5t3.5 -55.5q-56 -75 -154.5 -238t-191.5 -339t-237 -503q-75 -167 -141.5 -329.5t-116.5 -308.5t-77 -266.5t-31 -202.5q-4 -64 -29 -57t-54 43q-30 37 -45.5 68.5t-23.5 62.5q-29 67 55 300q53 130 155 352
t212 446q5 11 0 13t-12 -3q-43 -47 -175.5 -206.5t-196.5 -212.5q-62 -52 -125.5 -82.5t-113.5 -3.5q-89 47 -72 193t107 388q185 483 142 565q-38 99 -207.5 94t-368.5 -54q-56 -15 -33.5 40t120.5 105q99 49 218 71t201 22q173 3 219 -96t9 -214q-27 -80 -61.5 -169.5
t-98 -272t-87 -313.5t2.5 -192q14 -36 78.5 -5.5t223 201.5t340.5 427z" />
    <glyph glyph-name="Z" unicode="Z" horiz-adv-x="782" 
d="M1143 1557q71 -15 95 -60t-2 -54q-73 -27 -240 -206.5t-345 -410.5q-179 -232 -327 -465t-183 -367q-16 -59 22 -72t57 -13q70 4 146 11.5t148 19.5q162 31 249 74q62 32 65 -8t-68 -102q-29 -24 -96.5 -61t-154.5 -60q-88 -22 -185 -16.5t-184 65.5q-44 28 -91 106
q-49 76 -51 125q-5 98 86 273q86 163 246 371q76 97 163 195.5t180 190.5q195 194 378 321q14 10 15.5 22.5t-22.5 9.5q-60 -6 -137.5 -15.5t-155.5 -21.5q-122 -20 -219.5 -41t-109.5 -29q-21 -16 -55.5 5t-63.5 52q-27 27 -41.5 53.5t-5.5 34.5q39 32 163.5 53.5
t271.5 30.5q133 9 258 6t194 -17z" />
    <glyph glyph-name="bracketleft" unicode="[" horiz-adv-x="895" 
d="M748 1417l36 78l27 12l135 -2l24 7l50 -5l162 9l50 12l19 14l17 -8l-2 -20l-21 -38l-43 -114l-28 -14l-89 -11l-14 9l-25 2l-20 -8l-62 2l-26 -9l-20 4l-13 -6l-43 2l-39 -21l-12 -36l-17 -18l-10 -52l-38 -76l-13 -48l-23 -42l-14 -47l-51 -104l-11 -11l-75 -196l-4 -24
l-101 -232l-12 -43l-43 -101l-25 -86l-20 -32l-24 -62v-24l-31 -76l-15 -22l8 -23l347 21l41 20l14 -6l-4 -25l-26 -55l-7 -102l-14 -10l-49 8l-31 -4l-29 8l-28 -17l-14 11l-28 2l-20 -10l-34 10l-54 -17l-20 4l-64 -12l-28 8l-52 -17l-18 9l-35 71l-2 25l37 72l4 35l10 16
l14 56l58 120l4 31l8 10l4 29l23 34l100 271l29 53l68 186l104 228l57 150v28l15 12l2 18l16 32l18 10v22l17 62l8 6z" />
    <glyph glyph-name="backslash" unicode="\" horiz-adv-x="637" 
d="M170 -219l6 19l72 170l-4 16l16 67l-4 9l219 1404l-6 4l4 46l29 36l41 23l23 -15l8 -32l-46 -238l-2 -74l-26 -90l-27 -170l-6 -88l-29 -139l8 -17l-8 -26l4 -8l-14 -56v-46l-24 -99l6 -14l-27 -95l-37 -282l8 -14l-10 -25l-6 -77l-10 -32l8 -18l-6 -12l4 -8l-22 -64
l-66 -51l2 -6l-70 -11z" />
    <glyph glyph-name="bracketright" unicode="]" horiz-adv-x="895" 
d="M282 12l-18 -63l-8 -7l-12 -54l-29 -86l-15 -13l-24 9l-131 2l-25 -9l-48 4l-93 -6l-119 -2l-20 -15l-18 2v13l59 176l14 11l21 -13l88 6l14 -10l26 -2l21 10l61 -4l25 11l23 -5l55 3l37 22l12 36l18 19l9 51l39 74l14 49l20 43l15 45l51 105l10 12l78 194l2 25l102 231
l11 46l45 98l24 86l21 32l25 64v24l38 107l-30 13l-211 -17h-80l-29 -19l-22 2l-6 25l38 121l4 39l17 6l17 -8l28 6l28 -6l32 12l14 -10h24l21 8l37 -8l51 15l21 -5l63 13l31 -6l51 14l65 -10l8 -15l-12 -8l-12 -71l-35 -72v-35l-12 -15l-15 -57l-57 -121l-4 -30l-8 -8
l-4 -30l-23 -36l-100 -270l-29 -54l-67 -186l-103 -226l-59 -149v-29l-14 -14l-2 -18l-17 -31l-17 -10v-21z" />
    <glyph glyph-name="asciicircum" unicode="^" horiz-adv-x="819" 
 />
    <glyph glyph-name="underscore" unicode="_" horiz-adv-x="1024" 
d="M0 -465v191h1024v-191h-1024z" />
    <glyph glyph-name="grave" unicode="`" horiz-adv-x="842" 
d="M563 1132l-39 -10l-74 14l-30 11l-16 14l-34 4l-67 27l-6 10l-33 18l-14 17l-8 2l-10 10l-9 2l-8 9l-27 6l-14 12l-24 28l-15 31l10 17l9 8h14l6 -6l6 2l39 -6l13 2l6 -2l40 12h40l14 -10l14 -4l18 -8l2 -7l10 -8l62 -23l18 -8l11 -14l37 -10l4 -4l34 -12l21 -5l63 -8
l48 6l20 -4l6 -8l4 -17v-8l-22 -16l-4 -12l-10 -6l-27 -8l-23 -21l-34 -7z" />
    <glyph glyph-name="a" unicode="a" horiz-adv-x="569" 
d="M340 793q-55 -68 -96 -177t-60 -203q-20 -96 -14.5 -149.5t44.5 -9.5q31 34 64.5 80.5t65.5 95.5q68 108 103 181q91 193 43 252q-49 55 -150 -70zM545 739q-3 -16 14 -25q19 -13 23 -18q8 -15 -7 -46q-19 -45 -41 -144q-25 -114 -29 -199q-1 -14 -0.5 -21.5t18.5 13.5
q22 27 79 109q52 76 89 138t54 92q10 15 21 0.5t-15 -66.5q-23 -39 -59.5 -108.5t-111.5 -186.5q-37 -61 -68.5 -105t-56.5 -66q-23 -21 -55 26.5t-37 120.5q-4 34 3 94q2 38 -15 16q-18 -24 -42.5 -71.5t-50.5 -92.5q-27 -45 -52 -75t-44 -18q-68 41 -99 108
q-26 55 -22 112q6 120 49.5 228t105.5 191q132 177 251 187q123 10 98 -193z" />
    <glyph glyph-name="b" unicode="b" horiz-adv-x="611" 
d="M508 1584q17 17 48 -3t28 -59q-1 -10 -28 -88q-165 -508 -196 -608q-7 -28 15 -14q24 16 36 22q70 37 130 36q63 -4 94 -59q23 -43 36 -79.5t7 -82.5q-4 -19 15 -12q66 31 138 76q16 9 22 5.5t7 -17.5q-4 -22 -56 -61.5t-131 -75.5q-20 -9 -33 -36q-70 -159 -194 -294
q-60 -63 -123 -104t-117 -39q-44 1 -104.5 50t-61.5 88q-1 24 18 94.5t52 169.5q32 98 72 217t84 239t83.5 232t74.5 201q75 193 84 202zM588 703v0v0q29 115 -65 84q-89 -28 -158 -129q-5 -14 -3 -26q8 -67 154 -48q25 3 37 27q24 51 35 92zM468 506q-57 -4 -97 10
q-48 14 -78 49q-9 11 -16 -8q-19 -58 -35.5 -111t-31.5 -98q-15 -47 -26.5 -85t-19.5 -65q-13 -43 16 -37q50 11 138 106q85 92 159 208q21 33 -9 31z" />
    <glyph glyph-name="c" unicode="c" horiz-adv-x="464" 
d="M195 459q-29 -158 23 -221q66 -85 251 135q41 48 118.5 154.5t102.5 142.5q11 15 22 1t-19 -65q-135 -228 -249 -366q-94 -109 -168.5 -135t-132.5 7q-76 62 -94.5 146t0.5 177t67 187t100 160q154 186 293 172q101 -11 89 -110q-5 -35 -32.5 -108t-27.5 -101
q-1 -39 -43.5 0.5t-32.5 81.5q4 16 24.5 60t34.5 89q17 65 -55 30q-52 -28 -113 -105q-132 -179 -158 -332z" />
    <glyph glyph-name="d" unicode="d" horiz-adv-x="603" 
d="M849 1522q17 17 54.5 -13t28.5 -59q-5 -10 -79.5 -227t-154.5 -464q-80 -248 -145.5 -457.5t-68.5 -227.5q-5 -35 -55 12q-50 41 -52 80q-1 24 17.5 93t49.5 167q4 12 -2 18t-15 -9q-33 -54 -67.5 -110.5t-67.5 -102.5q-76 -108 -119 -119q-47 -13 -80 25t-49.5 87
t-16.5 82q-6 113 30.5 211.5t96.5 173.5q123 156 267 168q80 6 139 4q31 -2 45 35q43 120 84.5 232t76.5 200q73 191 83 201zM560 764q13 34 -20 40q-27 3 -50 1q-25 -3 -56 -17q-49 -24 -104.5 -99.5t-95.5 -165.5q-42 -90 -58 -175t14 -128q8 -12 65 63.5t120 169.5
q54 80 98 148.5t54 83.5q9 15 18 39z" />
    <glyph glyph-name="e" unicode="e" horiz-adv-x="504" 
d="M262 603q-25 -64 -37 -125q-9 -42 29 -14q68 51 161 168q41 54 73.5 109t42.5 98q12 59 -15.5 62.5t-72.5 -33.5q-45 -38 -96.5 -108t-84.5 -157zM216 374q-4 -71 20 -110q48 -83 144 -16q75 65 131 134q48 56 96.5 126t83.5 129q14 20 22 2q6 -21 -19 -65
q-38 -65 -89 -143.5t-134 -182.5q-145 -174 -278 -155q-62 8 -98.5 71t-26.5 192q7 111 60 226.5t112 194.5q143 191 275 176q98 -13 89 -123q-14 -67 -38 -117q-58 -124 -156 -220q-93 -87 -177 -101q-17 -2 -17 -18z" />
    <glyph glyph-name="f" unicode="f" horiz-adv-x="412" 
d="M520 1523q31 -3 60.5 -25t52.5 -74q26 -67 17 -166q-9 -92 -45 -197q-32 -96 -85 -193q-52 -94 -108 -156q-18 -19 11 -19q32 -2 65.5 -4t68.5 -4q72 -6 101 -44t-17 -36q-9 0 -56 -4t-109 -9q-132 -13 -232 -20q-19 -2 -25 -19q-60 -193 -118 -397q-57 -198 -97 -368
q-41 -168 -61 -290.5t-10 -164.5q9 -36 -18.5 -32t-64.5 27q-36 24 -68.5 55t-32.5 48q0 36 30 147.5t80 268.5q20 61 41.5 126t44.5 135q37 111 78.5 229.5t85.5 235.5q6 17 -7 28q-38 32 -14 46q19 10 42 18q13 4 24 31q62 165 121 316t109 265q49 113 85 179.5t51 66.5z
M527 1388q-46 -84 -109 -252q-66 -170 -134 -380q-11 -35 14 -12q51 48 113 144t110 201q48 103 69.5 194t-8.5 129q-19 23 -33.5 7t-21.5 -31z" />
    <glyph glyph-name="g" unicode="g" horiz-adv-x="588" 
d="M371 824q-73 -102 -112.5 -224.5t-50.5 -218.5q-11 -98 4.5 -147.5t53.5 -4.5q59 67 127 173q61 92 100 165q51 97 57 175.5t-16 120.5q-24 42 -68.5 36.5t-94.5 -75.5zM716 833q-33 -95 -62.5 -209.5t-59.5 -237.5q-32 -123 -67.5 -247t-80.5 -235t-101.5 -205
t-129.5 -157q-159 -132 -377 -84q-52 12 -154 66t-113 79q-28 69 48 24q75 -44 176.5 -54.5t206.5 31.5q106 44 205.5 151t171.5 299q30 81 61 179.5t61 197.5q2 9 -1.5 14.5t-13.5 -9.5q-47 -69 -126 -200.5t-133 -132.5q-50 -2 -105.5 59t-56.5 148q-5 191 72 354
q67 145 175 225q102 78 188 60q77 -17 105 -107q8 -33 18 1q13 39 21 50q10 14 45.5 -10.5t26.5 -49.5z" />
    <glyph glyph-name="h" unicode="h" horiz-adv-x="633" 
d="M316 707q-28 -97 -46 -165t-35 -131q-6 -18 0 -22t15 12q58 83 104.5 152.5t94.5 130.5q105 133 126 140q31 9 55 -21q17 -19 22 -51q5 -36 -7 -62q-23 -51 -52 -164q-14 -56 -24.5 -114t-11.5 -105q-2 -32 24 -9q32 31 119.5 173.5t121.5 192.5q10 16 20.5 2t-18.5 -65
q-57 -111 -140 -252t-158 -218q-25 -26 -46 -24q-19 1 -39 32q-25 34 -30 123q-2 87 20 171.5t55 165.5q5 13 0.5 16t-13.5 -8q-90 -114 -163 -219q-59 -84 -102.5 -150t-61.5 -116q-3 -10 -6.5 -23.5t-7.5 -21.5q-13 -22 -50 13q-53 50 -56 94q-3 30 41 178q22 75 51.5 168
t61.5 191q4 16 51.5 151t109.5 291q61 156 123 284.5t98 131.5q16 0 45 -30.5t39 -69.5q15 -60 -12.5 -178t-77.5 -241t-108.5 -201t-107.5 -112q-15 -9 -24 -40zM561 1459q-49 -84 -111 -262q-28 -82 -49.5 -154.5t-44.5 -160.5q-9 -38 17 -6q27 33 66.5 111.5t79.5 182.5
q37 85 57.5 165t9.5 126q-10 25 -25 -2z" />
    <glyph glyph-name="i" unicode="i" horiz-adv-x="266" 
d="M255 629q-9 -24 -34 -108t-38 -149.5t-14 -104.5q-2 -38 18 -13q15 18 42.5 56t57.5 82q30 43 85 120.5t74 104.5q10 15 19.5 1.5t-17.5 -64.5q-23 -39 -81 -130t-91 -147q-34 -56 -66.5 -104t-58.5 -70q-24 -22 -56 25q-35 51 -39 119q-4 60 11.5 126t45.5 143
q25 66 53.5 125.5t41.5 85.5q17 33 43.5 -3t3.5 -95zM329 937q29 -9 30.5 -36.5t-13.5 -56.5q-43 -74 -82 -74q-40 0 -16 93q25 87 81 74z" />
    <glyph glyph-name="j" unicode="j" horiz-adv-x="213" 
d="M315 966q29 -9 28.5 -36t-15.5 -56q-39 -75 -78 -75q-38 0 -19 94q16 92 84 73zM259 678q-49 -150 -79.5 -291.5t-70.5 -284.5q-36 -122 -74 -217q-52 -128 -101 -205q-58 -93 -130 -155q-75 -63 -166 -85q-96 -23 -210 3q-52 12 -154 65.5t-113 78.5q-27 69 48 24
q80 -47 177 -55q106 -9 207 32q115 48 205 151q104 119 172 300q15 36 23 63q47 134 92 282q52 176 77 257.5t36 109.5q10 29 43 2t18 -75z" />
    <glyph glyph-name="k" unicode="k" horiz-adv-x="609" 
d="M533 1557q17 16 48.5 -6t22.5 -60q-4 -16 -105 -307t-140.5 -417.5t-86.5 -273.5q-2 -6 1 -7.5t7 5.5q160 269 237.5 362t115.5 98q40 -10 64 -38.5t26 -74.5q5 -72 -94 -224t-229 -263q-24 -15 -14 -35q12 -27 28.5 -53t46.5 -26q29 0 72.5 37t111.5 134
q106 166 133 206.5t50 82.5q10 16 25 -2.5t-21 -74.5q-45 -82 -83 -151t-111 -176q-79 -114 -150 -161q-86 -55 -161 -2q-51 34 -88 123q-12 26 -24 4q-14 -22 -48 -103q-20 -44 -24 -73q-7 -34 -55 12q-51 44 -52 80q-2 49 57 227.5t188 510.5q93 242 168 440t84 206z
M642 863q-66 -60 -191.5 -237.5t-163.5 -248.5q-14 -27 12 -12q118 89 228 245.5t133 236.5q9 40 -18 16z" />
    <glyph glyph-name="l" unicode="l" horiz-adv-x="319" 
d="M310 802q-3 -27 40 28q44 58 120 236q40 100 62 183t20 137q-3 26 -16 6q-52 -82 -121 -271q-63 -173 -105 -319zM498 1492q25 27 61 -19q31 -40 38 -75q11 -60 -21 -186.5t-86 -258.5q-49 -109 -96.5 -172t-96.5 -99q-23 -18 -27 -37q-51 -147 -68 -233t-19 -130
q-7 -67 35 -33q23 21 60 67.5t97 134.5q58 81 97 141t47 72q10 16 20.5 2t-19.5 -65q-57 -108 -108.5 -189t-85.5 -140q-36 -60 -72 -108.5t-63 -70.5q-20 -17 -75 40q-59 80 -53.5 175.5t53.5 275.5q61 218 136 412t114 275q81 162 132 221z" />
    <glyph glyph-name="m" unicode="m" horiz-adv-x="953" 
d="M131 107q-11 -27 -64 16t-49 97q2 40 31.5 126t69.5 185q39 99 81 196t69 160q13 29 56 -25q41 -54 25 -93q-18 -39 -37 -95.5t-39 -119.5q-6 -17 0.5 -20.5t15.5 11.5q82 129 156 224q72 95 90 99q38 7 84 -49t33 -91q-15 -36 -32 -88t-35 -110q-11 -36 -3.5 -37
t26.5 30q72 116 133 197q62 84 78 88q39 5 79 -37.5t31 -78.5q-6 -26 -20 -81t-27 -118q-14 -64 -22 -124t-5 -96q1 -13 26 15.5t61 76.5q88 123 134.5 198.5t70.5 109.5q12 15 23.5 1t-18.5 -64q-24 -39 -65.5 -118.5t-128.5 -212.5q-45 -69 -76 -110t-59 -64
q-25 -21 -64.5 25t-45.5 119q-6 44 4.5 100t28.5 114q17 57 38.5 112.5t42.5 100.5q10 23 2 27.5t-24 -15.5q-83 -104 -176 -248q-45 -69 -84 -136t-58 -121q-12 -33 -18.5 -56t-11.5 -33q-13 -25 -66.5 16t-51.5 92q0 31 17.5 90.5t44.5 132.5q26 72 57 150t59 147
q6 16 -1.5 17.5t-16.5 -9.5q-57 -70 -127 -169.5t-130 -195.5q-41 -65 -62.5 -127t-49.5 -131z" />
    <glyph glyph-name="n" unicode="n" horiz-adv-x="556" 
d="M120 108q-15 -29 -58 17q-46 45 -40 96q3 40 31.5 126t67.5 185q38 99 78 196t67 160q11 27 48.5 -24.5t20.5 -93.5q-12 -28 -25 -64.5t-27 -77.5q-10 -31 -20.5 -64t-20.5 -66q-3 -9 1.5 -11.5t9.5 4.5q40 66 82.5 127.5t80.5 112.5q98 129 115 132q42 10 73 -54.5
t22 -86.5q-61 -160 -95 -298q-22 -88 -33.5 -175.5t-5.5 -168.5q3 -60 -9 -55t-37 27q-27 25 -54 58t-31 55q-23 94 42 291q37 110 108 274q5 13 1 16q-3 2 -14 -10q-76 -91 -160 -211q-51 -73 -99 -147.5t-75 -139.5q-10 -23 -15.5 -44t-10.5 -38q-15 -42 -18 -48z" />
    <glyph glyph-name="o" unicode="o" horiz-adv-x="619" 
d="M238 618q-59 -187 -35 -305q22 -103 97 -116q75 -12 149 70q82 88 121 252q4 18 -9 15q-59 -14 -100 -4q-50 13 -78 54q-52 73 6 165q50 77 141 118q14 5 14 21q3 58 -33 59t-86 -41q-51 -42 -104 -117.5t-83 -170.5zM592 661q4 59 -7 94q-13 33 -37 20
q-105 -58 -116 -137q-12 -82 148 -19q8 3 10 18.5t2 23.5zM675 675q-3 -15 10 -7q73 39 144 83q25 15 27 -16q0 -17 -53 -62q-57 -51 -130 -93q-12 -6 -16 -20q-15 -64 -47 -146t-83 -154q-51 -73 -120.5 -124t-157.5 -54q-84 -3 -135 62.5t-60 170.5t28.5 235t131.5 256
q112 149 236 183q124 33 153 -80q5 -27 11 -27q12 -2 22 -9q26 -23 36 -73q10 -52 3 -125z" />
    <glyph glyph-name="p" unicode="p" horiz-adv-x="660" 
d="M228 296q12 39 75 56t138 23q20 1 29 18q50 92 78 176q32 94 32 162q0 72 -61 44q-81 -37 -193 -209q-53 -81 -102 -182.5t-84 -211.5q-11 -34 -23 -74.5t-21 -73.5q-63 -222 -97 -425q-35 -186 -29 -262q4 -33 -21 -28.5t-57 25.5q-31 21 -58 50t-27 44q0 30 20 112.5
t53 197.5q33 116 75 253.5t87 278.5t89.5 274t81.5 240q79 230 97 256q12 17 48 -5.5t21 -54.5q-17 -33 -48 -121q-32 -93 -61 -188q-5 -18 1 -21.5t15 9.5q70 96 137 151q68 57 112 59q35 0 79 -61t54 -83q27 -67 20 -157q-8 -85 -44 -177q-7 -17 10 -19q24 -3 48 -13
t50 -20q61 -24 -8.5 -28t-119.5 -3q-17 0 -31 -21q-75 -128 -164 -174q-35 -18 -82.5 -19.5t-80.5 25.5q-77 60 -38 177zM393 307q-82 -7 -103 -36q-19 -27 -4.5 -54.5t24.5 -27.5q17 -1 42.5 30t51.5 68q15 21 -11 20z" />
    <glyph glyph-name="q" unicode="q" horiz-adv-x="608" 
d="M402 808q-81 -113 -137 -266q-50 -136 -54 -239q-3 -65 18.5 -91.5t52.5 9.5q60 70 128 173q67 105 99 166q51 97 59.5 174.5t-11.5 117.5q-21 39 -63.5 32.5t-91.5 -76.5zM430 -394q44 27 103.5 129t46.5 168q-18 79 -95 80q-21 0 -27 -25q-52 -206 -53 -334
q0 -33 25 -18zM292 -69q-56 -30 -112 -74q-21 -16 -53.5 -6.5t-29.5 17.5q4 22 67.5 58.5t148.5 63.5q26 9 31 25q37 109 83 220q21 54 44 106.5t46 103.5q9 21 5 29t-27 -27q-24 -35 -56 -95.5t-66 -118.5q-36 -60 -69.5 -103.5t-60.5 -43.5q-50 -2 -117.5 60.5
t-64.5 149.5q3 108 31.5 202t72.5 171q87 150 209 223q118 72 195 27q83 -47 65 -215q-3 -14 15 -19q20 -5 43 -7.5t5 -42.5q-3 -7 -13 -24.5t-19 -37.5q-39 -87 -87 -221q-24 -69 -49 -146.5t-47 -158.5q-6 -19 20 -19q123 0 155 -84q26 -72 -17 -184q-39 -101 -115 -174
q-79 -75 -142 -57q-36 11 -72 37t-39 48q-9 55 4 137q11 76 38 168q8 29 -22 12z" />
    <glyph glyph-name="r" unicode="r" horiz-adv-x="525" 
d="M426 744q18 29 -12 29q-19 0 -37.5 -1t-39.5 -1q-17 -2 -29 -19q-31 -47 -73.5 -142.5t-85.5 -205.5q-44 -110 -75 -196.5t-34 -98.5q-12 -30 -24 10q-9 27 -13 79t13 91q29 71 58 137.5t57 128.5q45 101 92 201t91 202q35 85 49 134q12 41 56.5 1.5t22.5 -70.5
q-10 -12 -43.5 -75t-42.5 -96q-7 -25 6 -25q14 0 45.5 3t65.5 4q48 1 85 -5.5t22 -31.5q-43 -69 -75 -162.5t-52 -183.5q-21 -91 -22.5 -145.5t23.5 -35.5q50 51 122.5 166t137.5 216q14 21 24 11q5 -6 2 -27q-4 -14 -14 -30.5t-13 -22.5q-21 -36 -77.5 -133.5t-85.5 -147.5
q-36 -60 -75 -111.5t-75 -77.5q-80 -54 -111 -3.5t-22 156.5q8 106 48 233.5t111 244.5z" />
    <glyph glyph-name="s" unicode="s" horiz-adv-x="373" 
d="M258 453q-8 20 -25.5 50.5t-47.5 82.5q-61 104 -6 198q87 146 225 203q54 21 87 24q37 3 42 -16q1 -13 -27 -30q-64 -44 -120.5 -102.5t-76.5 -115.5q-30 -80 -15 -133q10 -37 26 -73t35 -71q5 -11 13 -11q102 8 131.5 -11.5t15.5 -24.5q-41 -5 -76 -8.5t-53 -8.5
q-8 -4 -6 -13q19 -74 -14 -145.5t-103 -118.5q-58 -39 -122.5 -43t-109.5 24q-61 41 -47 110t84 129t185 90q9 3 5 14zM277 363q0 12 -13 9q-29 -6 -90.5 -34t-106.5 -73t-33 -81q13 -20 51.5 -11t81.5 36q43 29 76 71t34 83z" />
    <glyph glyph-name="t" unicode="t" horiz-adv-x="204" 
d="M472 1587q41 41 35 -44q-4 -35 -65 -258q-6 -17 14 -17q151 4 290 0q146 -5 211 -15q66 -12 92.5 -42t-15.5 -25q-6 0 -66 -3t-148 -9t-191.5 -13t-195.5 -13q-29 -3 -37 -29q-298 -1050 -332 -1173t-35 -127q-12 -24 -50 19q-39 45 -39 79q0 32 61.5 251.5t299.5 940.5
q10 31 -11 30q-98 -7 -109 -5q-56 4 -88 41.5t-11 48.5q27 14 95.5 23.5t158.5 15.5q17 1 25 18q45 132 75.5 216.5t35.5 89.5z" />
    <glyph glyph-name="u" unicode="u" horiz-adv-x="596" 
d="M312 732q-26 -54 -56 -159q-26 -86 -43 -192q-14 -93 -4.5 -145.5t49.5 -7.5q27 32 62 84.5t64 108.5t53 108.5t41 89.5q12 27 29.5 76.5t31.5 78.5q29 66 64 9.5t10 -110.5q-26 -57 -50 -162q-32 -128 -36 -216q0 -32 25 -7q33 32 123 183t123 201q11 15 21.5 1
t-18.5 -65q-57 -115 -144.5 -262.5t-152.5 -218.5q-66 -70 -94 15q-28 73 -15 184q4 21 1 23.5t-12 -12.5q-15 -24 -40.5 -64.5t-51.5 -82.5q-36 -55 -60 -84t-40 -24q-76 19 -107 97q-29 69 -17 154q10 57 25.5 113t42.5 128q23 59 42.5 107.5t51.5 123.5q22 64 65 24
q41 -42 17 -97z" />
    <glyph glyph-name="v" unicode="v" horiz-adv-x="462" 
d="M169 795q14 64 63 12q48 -52 34 -108q-5 -18 -21 -55t-33 -87q-18 -49 -30.5 -106.5t-9.5 -114.5q1 -42 23 -5q56 93 144 222q79 121 161 230q89 119 146 175q69 67 102 58q8 -3 19.5 -17t-11.5 -35q-124 -117 -220 -268q-80 -125 -138 -263q-51 -121 -71 -202.5
t-21 -87.5q-16 -50 -44 -42t-56 41q-28 32 -51 74t-28 61q-34 114 -13 265q9 66 24.5 129.5t30.5 123.5z" />
    <glyph glyph-name="w" unicode="w" horiz-adv-x="853" 
d="M358 754q-43 -60 -88.5 -158.5t-67.5 -191.5q-23 -93 -15 -148t59 -8q53 48 92.5 114t72.5 138q32 71 59 140t47 123q24 67 64 8.5t10 -109.5q-9 -15 -29 -60.5t-40 -106.5q-21 -62 -37.5 -131t-10.5 -131q8 -38 52 -10q80 52 145 160t118 231q52 121 84.5 225t41.5 137
q20 80 34 72t17 -93q1 -87 -29.5 -244t-120.5 -367q-75 -147 -129.5 -213.5t-127.5 -67.5q-60 1 -118 88q-59 88 -56 170q1 33 -22 -5q-14 -21 -34.5 -54t-44.5 -66q-56 -80 -88 -94q-10 -5 -18 -1q-98 45 -115 157q-14 83 12 182.5t68 190.5q89 194 147 262q52 37 77.5 -38
t-9.5 -101z" />
    <glyph glyph-name="x" unicode="x" horiz-adv-x="678" 
d="M303 208q-20 39 -31 72q-13 34 -33 8q-127 -170 -228 -340q-99 -170 -109 -236q-9 -53 -31 -50q-19 3 -39 44q-20 42 -25 87q-5 52 13 79q48 71 97 137.5t97 129.5q96 123 199 236q25 28 21 52q-17 87 -23 155q-7 58 -7 75q-5 25 -26 14.5t-28 -2.5q-21 21 7 49
q45 45 101 58q27 7 34 -10q18 -49 34 -98q8 -24 15 -46.5t14 -43.5q11 -39 42 -8q29 28 56.5 55t54.5 51q61 56 97 87q47 39 80 65q36 28 59 44q26 17 19 -33.5t-40 -62.5q-55 -20 -141 -98q-40 -36 -83 -81.5t-87 -94.5q-28 -30 -17 -67q8 -28 15.5 -54t16.5 -48
q16 -48 42 -80q27 -35 75 -9q60 30 152 149q38 48 97 139.5t83 126.5q11 16 20.5 0t-17.5 -67q-54 -103 -127 -216t-147 -186q-86 -84 -156 -88q-87 -5 -146 106z" />
    <glyph glyph-name="y" unicode="y" horiz-adv-x="529" 
d="M658 765q-41 -85 -111 -295q-69 -204 -130 -429q-31 -112 -58 -221.5t-45 -204.5q-41 -207 -31 -288q4 -39 -26 -38q-20 2 -50 20q-32 20 -59 48.5t-27 45.5q-1 42 29 153t77 255q46 145 101.5 306.5t105.5 305.5q3 11 1 21.5t-19 -16.5q-36 -57 -70.5 -112.5
t-65.5 -100.5q-71 -102 -98 -122q-28 -22 -79 23q-55 47 -67 115q-10 60 13 141.5t57 161.5q33 79 67.5 143.5t49.5 89.5q13 25 40 9t37 -52q7 -27 -21 -109t-40 -121q-20 -66 -36 -132t-14 -109q0 -30 19 -6q19 22 54.5 71.5t78.5 111.5q42 62 87 128.5t84 123.5
q42 63 62 106q9 21 18 37q13 26 46 -4t20 -56z" />
    <glyph glyph-name="z" unicode="z" horiz-adv-x="541" 
d="M138 556q20 33 59.5 107t61.5 104q77 104 172 101q79 -5 129 -73q26 -37 49.5 -58.5t-26.5 -66.5q-24 -21 -63.5 -76t-84.5 -119q-45 -65 -90 -129.5l-75 -107.5q-22 -32 8 -13q35 21 71.5 45t69.5 42q73 39 91 15q39 -51 46 -108q7 -49 -9 -86q-17 -35 -36 -30
q-23 3 -31 56q-10 65 -102 54q-97 -11 -195 -110q-9 -9 -16.5 -19.5t-17.5 -19.5q-21 -17 -57 14q-26 21 -37.5 61t21.5 84q37 51 93 120.5t116 139.5q59 70 114 131.5t92 97.5q25 25 -5 27q-72 4 -176 -74.5t-159 -153.5q-35 -47 -39 -25t26 70z" />
    <glyph glyph-name="braceleft" unicode="{" horiz-adv-x="1042" 
d="M931 1536v-78q-176 0 -254 -86q-71 -88 -71 -274v-133q0 -213 -87.5 -300t-324.5 -130l-29 -9q236 0 334 -103.5t98 -348.5v-103q0 -139 23.5 -208.5t89.5 -106.5t119 -50.5t90 -13.5v-77q-64 0 -118 6t-114 22q-110 27 -168.5 87.5t-82 125t-23.5 185.5v43v122v37
q0 97 -23 158q-18 68 -77 102q-54 35 -119 52q-14 4 -53 11t-70 11v105q184 24 266 91.5t82 252.5v147q0 144 25.5 233t110.5 139t181.5 70.5t194.5 20.5z" />
    <glyph glyph-name="bar" unicode="|" horiz-adv-x="425" 
d="M272 -164h-98v1829h98v-1829z" />
    <glyph glyph-name="braceright" unicode="}" horiz-adv-x="1056" 
d="M475 1462q109 -63 139.5 -160.5t30.5 -228.5v-147q0 -181 80 -250.5t268 -93.5v-105q-74 -6 -127 -20q-57 -13 -118.5 -54t-80 -113.5t-18.5 -183.5v-122v-43q0 -101 -16 -164q-15 -68 -77.5 -132.5t-179 -97t-235.5 -32.5v77q45 0 85 7.5t115 49.5t99.5 114.5
t24.5 207.5v103q0 245 97 348.5t335 103.5l-29 9q-233 40 -321 126.5t-88 303.5v133q0 184 -73 272t-255 88v78q90 0 182 -18.5t162 -55.5z" />
    <glyph glyph-name="asciitilde" unicode="~" horiz-adv-x="684" 
d="M203 347q-17 -103 4.5 -162.5t66.5 -24.5q64 73 136 182q69 105 106 188q48 100 54 183t-18 127q-43 56 -111.5 16.5t-122.5 -152.5q-49 -101 -78 -204.5t-37 -152.5zM1193 -107q11 -3 43 -25.5t57 -46t27.5 -40.5t-45.5 -8q-160 30 -367 47q-216 20 -411 23
q-14 0 -20 -10q-44 -111 -106 -205q-72 -107 -155 -178q-192 -143 -424 -92q-41 9 -111.5 48t-136 91.5t-107.5 109.5t-25 103q22 62 110 115q86 54 221 92q134 33 296 52q169 21 340 23q11 0 15 12q22 81 54 181t62 202q3 9 -1 14t-14 -9q-50 -90 -130 -220.5t-137 -131.5
q-52 -2 -110.5 62t-60.5 156q-5 200 76 371q71 149 185 236q108 80 199 62q82 -17 111 -112q10 -33 20 1q16 45 22 52q11 15 48 -11t28 -52q-35 -105 -67 -227.5t-74 -271.5l-83 -295q-4 -19 9 -19q167 -1 333 -25q175 -26 329 -74zM335 -174q10 19 -6 21q-121 -1 -263 -13
t-250 -33q-230 -41 -295 -124q-26 -33 1 -70.5t71 -69.5q79 -44 184 -53.5t213 34.5q122 44 201 120q90 84 144 188z" />
    <glyph glyph-name="dieresis" unicode="&#xa8;" horiz-adv-x="1024" 
 />
    <glyph glyph-name="copyright" unicode="&#xa9;" horiz-adv-x="750" 
 />
    <glyph glyph-name="registered" unicode="&#xae;" horiz-adv-x="750" 
 />
    <glyph glyph-name="acute" unicode="&#xb4;" horiz-adv-x="1024" 
 />
    <glyph glyph-name="paragraph" unicode="&#xb6;" horiz-adv-x="1024" 
d="M929 1435v-70h-127v-1365h-82v1365h-166v-1365h-84v738q-174 8 -275.5 102.5t-101.5 245.5q0 157 107.5 253t285.5 96h443z" />
    <glyph glyph-name="onequarter" unicode="&#xbc;" horiz-adv-x="1193" 
d="M217 -209q9 15 14 32l4 15l135 269q46 91 86 168l137 259q22 41 57 107l215 402q40 77 40 83q0 17 -19 17q-51 0 -95 -40q-14 -12 -25 -26q-4 -5 -6 -8l-430 -846l-205 -416q-15 -34 -17 -43q0 -3 6 -10q10 -10 25 -10q50 0 78 47zM343 848q-10 -115 -24 -228l-31 -208
q-9 -41 -34 -66q-20 -20 -33 -20q-7 0 -10 8l-2 8l6 210q2 86 2 159q0 111 -4 183l-4 52q0 12 -11 12q-8 0 -8 -4q-25 -11 -72 -44q-41 -30 -41 -31q0 -7 -14 -7q-6 0 -6 13q0 10 4 24q7 20 21 43q41 65 137 138l12 12q0 11 36 32q39 23 71 23q22 0 22 -27q-5 -138 -17 -282
zM1081 295q20 5 34 9q16 5 21 9q0 2 8 2q7 0 7 -6q-24 -80 -48 -101q-19 -16 -75 -18l-6 -8l-2 -112q0 -107 10 -148q2 -4 2 -8q0 -8 -6 -12t-6 -2q-71 19 -106 70q-28 39 -28 85q0 32 6 79q1 14 3 30l2 12l-3 6l-3 2l-76 -2q-32 0 -65 2l-53 4q-48 5 -48 7q-53 4 -53 45
l2 14q25 70 93 166q55 77 134 166q57 63 120 127q52 52 52 51q19 15 39 21l15 3h12q4 0 7 -3q5 -4 5 -15l-24 -174q-10 -85 -17 -154q-8 -87 -8 -145q0 -10 10 -10zM950 616q0 9 -4 9h-6l-22 -28q-26 -34 -51 -71q-34 -51 -61 -99q-34 -60 -53 -112l-6 -30q0 -20 19 -23
q0 -2 47 -2l36 1l48 3q6 0 6 6z" />
    <glyph glyph-name="onehalf" unicode="&#xbd;" horiz-adv-x="1193" 
d="M217 -209q9 15 14 32l4 15l135 269q46 91 86 168l137 259q22 41 57 107l215 402q40 77 40 83q0 17 -19 17q-51 0 -95 -40q-14 -12 -25 -26q-4 -5 -6 -8l-430 -846l-205 -416q-15 -34 -17 -43q0 -3 6 -10q10 -10 25 -10q50 0 78 47zM1029 -12q50 22 91 104l7 18l1 7
q0 8 -8 8q-10 0 -10 -2q-66 -16 -125 -22q-48 -5 -107 -5q-37 0 -37 10v11q84 132 138 230q46 86 72 148q20 50 27 88l4 29l1 23q0 66 -28 89q-11 8 -26 11q-10 2 -26 2q-105 0 -211 -99q-99 -92 -102 -169q0 -16 12 -16q5 0 11 5l76 65q80 61 128 61q16 0 22 -5
q11 -7 11 -30q0 -10 -2 -23q-2 -15 -6 -32l-9 -31l-31 -83q-25 -62 -56 -124q-39 -78 -87 -152q0 -4 -12 -10q0 3 -10 -5l-11 -11q-7 -9 -14 -21l-4 -8l-10 -20l-10 -26q-4 -15 -4 -26q0 -30 53 -30q222 10 292 41zM343 848q-10 -115 -24 -228l-31 -208q-9 -41 -34 -66
q-20 -20 -33 -20q-7 0 -10 8l-2 8l6 210q2 86 2 159q0 111 -4 183l-4 52q0 12 -11 12q-8 0 -8 -4q-25 -11 -72 -44q-41 -30 -41 -31q0 -7 -14 -7q-6 0 -6 13q0 10 4 24q7 20 21 43q41 65 137 138l12 12q0 11 36 32q39 23 71 23q22 0 22 -27q-5 -138 -17 -282z" />
    <glyph glyph-name="threequarters" unicode="&#xbe;" horiz-adv-x="1193" 
d="M217 -209q9 15 15 32l4 15l135 269q46 91 86 168l136 259q22 41 57 107l216 402q39 77 39 83q0 17 -18 17q-51 0 -96 -40q-14 -12 -25 -26q-3 -5 -5 -8l-431 -846l-204 -416q-15 -34 -17 -43q0 -3 6 -10q9 -10 24 -10q50 0 78 47zM1081 295q21 5 34 9q17 5 22 9q0 2 8 2
q6 0 6 -6q-23 -80 -48 -101q-19 -16 -75 -18l-6 -8l-2 -112q0 -107 10 -148q2 -4 2 -8q0 -8 -6 -12t-6 -2q-71 19 -106 70q-27 39 -27 85q0 32 5 79q1 14 3 30l2 12l-3 6l-3 2l-76 -2q-32 0 -65 2l-52 4q-49 5 -49 7q-53 4 -53 45l2 14q25 70 94 166q54 77 133 166
q57 63 120 127q52 52 52 51q19 15 39 21l16 3h11q5 0 8 -3q4 -4 4 -15l-24 -174q-10 -85 -16 -154q-8 -87 -9 -145q0 -10 10 -10zM950 616q0 9 -4 9h-6l-21 -28q-27 -34 -51 -71q-35 -51 -62 -99q-33 -60 -52 -112l-6 -30q0 -20 18 -23q0 -2 47 -2l36 1l48 3q6 0 6 6z
M357 523q-40 -70 -109 -137q-139 -134 -215 -134q-25 0 -25 6q-10 7 -10 10q0 4 4 8l4 3q79 59 134 119q47 52 76 102q23 41 33 80l6 30q1 12 1 23q0 52 -63 84q-11 6 -24 11l-23 7l-29 6q-33 3 -46 11q-7 4 -7 10q0 9 8 18l17 14l24 13q90 65 132 127q16 24 23 46
q6 17 6 30q0 30 -55 30q-51 0 -125 -30l-45 -21l-24 -14q-7 -4 -11 -4q-8 0 -8 8q0 60 103 119q96 55 182 57h12q7 0 14 -1q19 -2 32 -8q40 -15 42 -56v-16l-3 -18q-6 -22 -19 -49q-36 -68 -133 -169l-2 -4q-3 -3 -3 -5q0 -3 9 -6q6 -1 14 -3l23 -6q31 -10 56 -24
q73 -42 73 -110q-1 -75 -49 -157z" />
    <glyph glyph-name="Agrave" unicode="&#xc0;" 
d="M1512 1542q36 -37 60 -117t21 -100q-14 -72 -33.5 -176.5t-43.5 -225.5t-49.5 -251.5t-50.5 -255.5q-25 -126 -48 -239t-41 -198q-40 -186 -43 -190q-20 -17 -67 23q-48 42 -52 76q-5 40 31 226q34 183 88 422q5 22 -20 21q-28 -2 -61 -4t-70 -4q-37 -3 -77.5 -5
t-82.5 -5q-18 0 -27 -14q-93 -145 -190 -272.5t-194 -223.5q-99 -96 -194 -155q-101 -59 -191 -67q-79 -7 -129.5 19.5t-75.5 61.5q-24 36 -25.5 65.5t17.5 28.5q210 -8 428 138q194 133 398 391q14 17 -7 17q-56 0 -117.5 -4t-121.5 -9t-116.5 -9t-104.5 -3
q-74 5 -113 46.5t-12 53.5q67 27 272 41q196 12 411 11q16 -2 26 12q22 30 64 92q121 177 243 376q128 213 222 400q27 55 76 7zM1312 652q21 89 43.5 177.5t43.5 171.5q21 81 40 154.5t35 132.5q20 69 8 153q-6 37 -21 8q-47 -92 -98.5 -189t-105.5 -196
q-54 -100 -110.5 -200t-111.5 -196q-10 -16 12 -17q25 -2 49.5 -3t51.5 -2q27 -3 59 -5.5t74 -6.5q24 -3 31 18zM1425 1938h11q16 -9 107 -174q106 -152 108 -180l-5 -6h-11q-86 0 -307 231l-11 39q0 53 108 90z" />
    <glyph glyph-name="Aacute" unicode="&#xc1;" 
d="M1512 1542q36 -37 60 -117t21 -100q-14 -72 -33.5 -176.5t-43.5 -225.5t-49.5 -251.5t-50.5 -255.5q-25 -126 -48 -239t-41 -198q-40 -186 -43 -190q-20 -17 -67 23q-48 42 -52 76q-5 40 31 226q34 183 88 422q5 22 -20 21q-28 -2 -61 -4t-70 -4q-37 -3 -77.5 -5
t-82.5 -5q-18 0 -27 -14q-93 -145 -190 -272.5t-194 -223.5q-99 -96 -194 -155q-101 -59 -191 -67q-79 -7 -129.5 19.5t-75.5 61.5q-24 36 -25.5 65.5t17.5 28.5q210 -8 428 138q194 133 398 391q14 17 -7 17q-56 0 -117.5 -4t-121.5 -9t-116.5 -9t-104.5 -3
q-74 5 -113 46.5t-12 53.5q67 27 272 41q196 12 411 11q16 -2 26 12q22 30 64 92q121 177 243 376q128 213 222 400q27 55 76 7zM1312 652q21 89 43.5 177.5t43.5 171.5q21 81 40 154.5t35 132.5q20 69 8 153q-6 37 -21 8q-47 -92 -98.5 -189t-105.5 -196
q-54 -100 -110.5 -200t-111.5 -196q-10 -16 12 -17q25 -2 49.5 -3t51.5 -2q27 -3 59 -5.5t74 -6.5q24 -3 31 18zM1948 1819q111 -39 111 -86q-146 -114 -444 -168l-11 16z" />
    <glyph glyph-name="uni1EA2" unicode="&#x1ea2;" 
d="M1512 1542q36 -37 60 -117t21 -100q-14 -72 -33.5 -176.5t-43.5 -225.5t-49.5 -251.5t-50.5 -255.5q-25 -126 -48 -239t-41 -198q-40 -186 -43 -190q-20 -17 -67 23q-48 42 -52 76q-5 40 31 226q34 183 88 422q5 22 -20 21q-28 -2 -61 -4t-70 -4q-37 -3 -77.5 -5
t-82.5 -5q-18 0 -27 -14q-93 -145 -190 -272.5t-194 -223.5q-99 -96 -194 -155q-101 -59 -191 -67q-79 -7 -129.5 19.5t-75.5 61.5q-24 36 -25.5 65.5t17.5 28.5q210 -8 428 138q194 133 398 391q14 17 -7 17q-56 0 -117.5 -4t-121.5 -9t-116.5 -9t-104.5 -3
q-74 5 -113 46.5t-12 53.5q67 27 272 41q196 12 411 11q16 -2 26 12q22 30 64 92q121 177 243 376q128 213 222 400q27 55 76 7zM1312 652q21 89 43.5 177.5t43.5 171.5q21 81 40 154.5t35 132.5q20 69 8 153q-6 37 -21 8q-47 -92 -98.5 -189t-105.5 -196
q-54 -100 -110.5 -200t-111.5 -196q-10 -16 12 -17q25 -2 49.5 -3t51.5 -2q27 -3 59 -5.5t74 -6.5q24 -3 31 18zM1581 1684q14 13 89.5 58t88.5 69q55 63 14.5 84.5t-82 19t-78 -14t-59.5 -17.5q-33 11 -18.5 31t57.5 45q24 13 73.5 26t101.5 17q51 3 93.5 -7t52.5 -41
q10 -33 -9 -66.5t-52 -64.5q-33 -32 -75 -65.5t-72 -57.5q-60 -49 -64.5 -85t-13.5 -48q-6 -9 -19.5 -2.5t-21.5 22.5q-9 16 -18.5 45t12.5 52z" />
    <glyph glyph-name="Atilde" unicode="&#xc3;" 
d="M1512 1542q36 -37 60 -117t21 -100q-14 -72 -33.5 -176.5t-43.5 -225.5t-49.5 -251.5t-50.5 -255.5q-25 -126 -48 -239t-41 -198q-40 -186 -43 -190q-20 -17 -67 23q-48 42 -52 76q-5 40 31 226q34 183 88 422q5 22 -20 21q-28 -2 -61 -4t-70 -4q-37 -3 -77.5 -5
t-82.5 -5q-18 0 -27 -14q-93 -145 -190 -272.5t-194 -223.5q-99 -96 -194 -155q-101 -59 -191 -67q-79 -7 -129.5 19.5t-75.5 61.5q-24 36 -25.5 65.5t17.5 28.5q210 -8 428 138q194 133 398 391q14 17 -7 17q-56 0 -117.5 -4t-121.5 -9t-116.5 -9t-104.5 -3
q-74 5 -113 46.5t-12 53.5q67 27 272 41q196 12 411 11q16 -2 26 12q22 30 64 92q121 177 243 376q128 213 222 400q27 55 76 7zM1312 652q21 89 43.5 177.5t43.5 171.5q21 81 40 154.5t35 132.5q20 69 8 153q-6 37 -21 8q-47 -92 -98.5 -189t-105.5 -196
q-54 -100 -110.5 -200t-111.5 -196q-10 -16 12 -17q25 -2 49.5 -3t51.5 -2q27 -3 59 -5.5t74 -6.5q24 -3 31 18zM1527 1799q209 -35 264 -25l24 4q28 5 64 51l12 2l21 -13q19 -104 -156 -162l-42 -2q-275 45 -328 35q-28 -5 -104 -69l-20 8l-1 5q55 139 186 162l12 2
q43 8 68 2z" />
    <glyph glyph-name="uni1EA0" unicode="&#x1ea0;" 
d="M1512 1542q36 -37 60 -117t21 -100q-14 -72 -33.5 -176.5t-43.5 -225.5t-49.5 -251.5t-50.5 -255.5q-25 -126 -48 -239t-41 -198q-40 -186 -43 -190q-20 -17 -67 23q-48 42 -52 76q-5 40 31 226q34 183 88 422q5 22 -20 21q-28 -2 -61 -4t-70 -4q-37 -3 -77.5 -5
t-82.5 -5q-18 0 -27 -14q-93 -145 -190 -272.5t-194 -223.5q-99 -96 -194 -155q-101 -59 -191 -67q-79 -7 -129.5 19.5t-75.5 61.5q-24 36 -25.5 65.5t17.5 28.5q210 -8 428 138q194 133 398 391q14 17 -7 17q-56 0 -117.5 -4t-121.5 -9t-116.5 -9t-104.5 -3
q-74 5 -113 46.5t-12 53.5q67 27 272 41q196 12 411 11q16 -2 26 12q22 30 64 92q121 177 243 376q128 213 222 400q27 55 76 7zM1312 652q21 89 43.5 177.5t43.5 171.5q21 81 40 154.5t35 132.5q20 69 8 153q-6 37 -21 8q-47 -92 -98.5 -189t-105.5 -196
q-54 -100 -110.5 -200t-111.5 -196q-10 -16 12 -17q25 -2 49.5 -3t51.5 -2q27 -3 59 -5.5t74 -6.5q24 -3 31 18zM766 -279q43 -11 48 -53q4 -37 -19 -90q-23 -49 -55 -85q-35 -38 -59 -39q-29 -2 -39 42q-10 43 -2 104q8 63 39 96q33 36 87 25z" />
    <glyph glyph-name="Acircumflex" unicode="&#xc2;" 
d="M1512 1542q36 -37 60 -117t21 -100q-14 -72 -33.5 -176.5t-43.5 -225.5t-49.5 -251.5t-50.5 -255.5q-25 -126 -48 -239t-41 -198q-40 -186 -43 -190q-20 -17 -67 23q-48 42 -52 76q-5 40 31 226q34 183 88 422q5 22 -20 21q-28 -2 -61 -4t-70 -4q-37 -3 -77.5 -5
t-82.5 -5q-18 0 -27 -14q-93 -145 -190 -272.5t-194 -223.5q-99 -96 -194 -155q-101 -59 -191 -67q-79 -7 -129.5 19.5t-75.5 61.5q-24 36 -25.5 65.5t17.5 28.5q210 -8 428 138q194 133 398 391q14 17 -7 17q-56 0 -117.5 -4t-121.5 -9t-116.5 -9t-104.5 -3
q-74 5 -113 46.5t-12 53.5q67 27 272 41q196 12 411 11q16 -2 26 12q22 30 64 92q121 177 243 376q128 213 222 400q27 55 76 7zM1312 652q21 89 43.5 177.5t43.5 171.5q21 81 40 154.5t35 132.5q20 69 8 153q-6 37 -21 8q-47 -92 -98.5 -189t-105.5 -196
q-54 -100 -110.5 -200t-111.5 -196q-10 -16 12 -17q25 -2 49.5 -3t51.5 -2q27 -3 59 -5.5t74 -6.5q24 -3 31 18zM1552 1840h5q116 -46 186 -251l-3 -20l-6 -6h-10q-55 73 -202 162q-83 -28 -221 -136h-14q17 100 223 231z" />
    <glyph glyph-name="uni1EA6" unicode="&#x1ea6;" 
d="M1512 1542q36 -37 60 -117t21 -100q-14 -72 -33.5 -176.5t-43.5 -225.5t-49.5 -251.5t-50.5 -255.5q-25 -126 -48 -239t-41 -198q-40 -186 -43 -190q-20 -17 -67 23q-48 42 -52 76q-5 40 31 226q34 183 88 422q5 22 -20 21q-28 -2 -61 -4t-70 -4q-37 -3 -77.5 -5
t-82.5 -5q-18 0 -27 -14q-93 -145 -190 -272.5t-194 -223.5q-99 -96 -194 -155q-101 -59 -191 -67q-79 -7 -129.5 19.5t-75.5 61.5q-24 36 -25.5 65.5t17.5 28.5q210 -8 428 138q194 133 398 391q14 17 -7 17q-56 0 -117.5 -4t-121.5 -9t-116.5 -9t-104.5 -3
q-74 5 -113 46.5t-12 53.5q67 27 272 41q196 12 411 11q16 -2 26 12q22 30 64 92q121 177 243 376q128 213 222 400q27 55 76 7zM1312 652q21 89 43.5 177.5t43.5 171.5q21 81 40 154.5t35 132.5q20 69 8 153q-6 37 -21 8q-47 -92 -98.5 -189t-105.5 -196
q-54 -100 -110.5 -200t-111.5 -196q-10 -16 12 -17q25 -2 49.5 -3t51.5 -2q27 -3 59 -5.5t74 -6.5q24 -3 31 18zM1552 1840h5q116 -46 186 -251l-3 -20l-6 -6h-10q-55 73 -202 162q-83 -28 -221 -136h-14q17 100 223 231zM1560 2150h11q16 -9 107 -174q106 -152 108 -180
l-5 -6h-11q-86 0 -307 231l-11 39q0 53 108 90z" />
    <glyph glyph-name="uni1EA4" unicode="&#x1ea4;" 
d="M1512 1542q36 -37 60 -117t21 -100q-14 -72 -33.5 -176.5t-43.5 -225.5t-49.5 -251.5t-50.5 -255.5q-25 -126 -48 -239t-41 -198q-40 -186 -43 -190q-20 -17 -67 23q-48 42 -52 76q-5 40 31 226q34 183 88 422q5 22 -20 21q-28 -2 -61 -4t-70 -4q-37 -3 -77.5 -5
t-82.5 -5q-18 0 -27 -14q-93 -145 -190 -272.5t-194 -223.5q-99 -96 -194 -155q-101 -59 -191 -67q-79 -7 -129.5 19.5t-75.5 61.5q-24 36 -25.5 65.5t17.5 28.5q210 -8 428 138q194 133 398 391q14 17 -7 17q-56 0 -117.5 -4t-121.5 -9t-116.5 -9t-104.5 -3
q-74 5 -113 46.5t-12 53.5q67 27 272 41q196 12 411 11q16 -2 26 12q22 30 64 92q121 177 243 376q128 213 222 400q27 55 76 7zM1312 652q21 89 43.5 177.5t43.5 171.5q21 81 40 154.5t35 132.5q20 69 8 153q-6 37 -21 8q-47 -92 -98.5 -189t-105.5 -196
q-54 -100 -110.5 -200t-111.5 -196q-10 -16 12 -17q25 -2 49.5 -3t51.5 -2q27 -3 59 -5.5t74 -6.5q24 -3 31 18zM1552 1840h5q116 -46 186 -251l-3 -20l-6 -6h-10q-55 73 -202 162q-83 -28 -221 -136h-14q17 100 223 231zM2040 2003q111 -39 111 -86q-146 -114 -444 -168
l-11 16z" />
    <glyph glyph-name="uni1EA8" unicode="&#x1ea8;" 
d="M1512 1542q36 -37 60 -117t21 -100q-14 -72 -33.5 -176.5t-43.5 -225.5t-49.5 -251.5t-50.5 -255.5q-25 -126 -48 -239t-41 -198q-40 -186 -43 -190q-20 -17 -67 23q-48 42 -52 76q-5 40 31 226q34 183 88 422q5 22 -20 21q-28 -2 -61 -4t-70 -4q-37 -3 -77.5 -5
t-82.5 -5q-18 0 -27 -14q-93 -145 -190 -272.5t-194 -223.5q-99 -96 -194 -155q-101 -59 -191 -67q-79 -7 -129.5 19.5t-75.5 61.5q-24 36 -25.5 65.5t17.5 28.5q210 -8 428 138q194 133 398 391q14 17 -7 17q-56 0 -117.5 -4t-121.5 -9t-116.5 -9t-104.5 -3
q-74 5 -113 46.5t-12 53.5q67 27 272 41q196 12 411 11q16 -2 26 12q22 30 64 92q121 177 243 376q128 213 222 400q27 55 76 7zM1312 652q21 89 43.5 177.5t43.5 171.5q21 81 40 154.5t35 132.5q20 69 8 153q-6 37 -21 8q-47 -92 -98.5 -189t-105.5 -196
q-54 -100 -110.5 -200t-111.5 -196q-10 -16 12 -17q25 -2 49.5 -3t51.5 -2q27 -3 59 -5.5t74 -6.5q24 -3 31 18zM1552 1840h5q116 -46 186 -251l-3 -20l-6 -6h-10q-55 73 -202 162q-83 -28 -221 -136h-14q17 100 223 231zM1709 1840q14 13 89.5 58t88.5 69q55 63 14.5 84.5
t-82 19t-78 -14t-59.5 -17.5q-33 11 -18.5 31t57.5 45q24 13 73.5 26t101.5 17q51 3 93.5 -7t52.5 -41q10 -33 -9 -66.5t-52 -64.5q-33 -32 -75 -65.5t-72 -57.5q-60 -49 -64.5 -85t-13.5 -48q-6 -9 -19.5 -2.5t-21.5 22.5q-9 16 -18.5 45t12.5 52z" />
    <glyph glyph-name="uni1EAA" unicode="&#x1eaa;" 
d="M1512 1542q36 -37 60 -117t21 -100q-14 -72 -33.5 -176.5t-43.5 -225.5t-49.5 -251.5t-50.5 -255.5q-25 -126 -48 -239t-41 -198q-40 -186 -43 -190q-20 -17 -67 23q-48 42 -52 76q-5 40 31 226q34 183 88 422q5 22 -20 21q-28 -2 -61 -4t-70 -4q-37 -3 -77.5 -5
t-82.5 -5q-18 0 -27 -14q-93 -145 -190 -272.5t-194 -223.5q-99 -96 -194 -155q-101 -59 -191 -67q-79 -7 -129.5 19.5t-75.5 61.5q-24 36 -25.5 65.5t17.5 28.5q210 -8 428 138q194 133 398 391q14 17 -7 17q-56 0 -117.5 -4t-121.5 -9t-116.5 -9t-104.5 -3
q-74 5 -113 46.5t-12 53.5q67 27 272 41q196 12 411 11q16 -2 26 12q22 30 64 92q121 177 243 376q128 213 222 400q27 55 76 7zM1312 652q21 89 43.5 177.5t43.5 171.5q21 81 40 154.5t35 132.5q20 69 8 153q-6 37 -21 8q-47 -92 -98.5 -189t-105.5 -196
q-54 -100 -110.5 -200t-111.5 -196q-10 -16 12 -17q25 -2 49.5 -3t51.5 -2q27 -3 59 -5.5t74 -6.5q24 -3 31 18zM1552 1840h5q116 -46 186 -251l-3 -20l-6 -6h-10q-55 73 -202 162q-83 -28 -221 -136h-14q17 100 223 231zM1612 1990q209 -35 264 -25l24 4q28 5 64 51l12 2
l21 -13q19 -104 -156 -162l-42 -2q-275 45 -328 35q-28 -5 -104 -69l-20 8l-1 5q55 139 186 162l12 2q43 8 68 2z" />
    <glyph glyph-name="uni1EAC" unicode="&#x1eac;" 
d="M1512 1542q36 -37 60 -117t21 -100q-14 -72 -33.5 -176.5t-43.5 -225.5t-49.5 -251.5t-50.5 -255.5q-25 -126 -48 -239t-41 -198q-40 -186 -43 -190q-20 -17 -67 23q-48 42 -52 76q-5 40 31 226q34 183 88 422q5 22 -20 21q-28 -2 -61 -4t-70 -4q-37 -3 -77.5 -5
t-82.5 -5q-18 0 -27 -14q-93 -145 -190 -272.5t-194 -223.5q-99 -96 -194 -155q-101 -59 -191 -67q-79 -7 -129.5 19.5t-75.5 61.5q-24 36 -25.5 65.5t17.5 28.5q210 -8 428 138q194 133 398 391q14 17 -7 17q-56 0 -117.5 -4t-121.5 -9t-116.5 -9t-104.5 -3
q-74 5 -113 46.5t-12 53.5q67 27 272 41q196 12 411 11q16 -2 26 12q22 30 64 92q121 177 243 376q128 213 222 400q27 55 76 7zM1312 652q21 89 43.5 177.5t43.5 171.5q21 81 40 154.5t35 132.5q20 69 8 153q-6 37 -21 8q-47 -92 -98.5 -189t-105.5 -196
q-54 -100 -110.5 -200t-111.5 -196q-10 -16 12 -17q25 -2 49.5 -3t51.5 -2q27 -3 59 -5.5t74 -6.5q24 -3 31 18zM1552 1840h5q116 -46 186 -251l-3 -20l-6 -6h-10q-55 73 -202 162q-83 -28 -221 -136h-14q17 100 223 231zM766 -279q43 -11 48 -53q4 -37 -19 -90
q-23 -49 -55 -85q-35 -38 -59 -39q-29 -2 -39 42q-10 43 -2 104q8 63 39 96q33 36 87 25z" />
    <glyph glyph-name="Abreve" unicode="&#x102;" 
d="M1512 1542q36 -37 60 -117t21 -100q-14 -72 -33.5 -176.5t-43.5 -225.5t-49.5 -251.5t-50.5 -255.5q-25 -126 -48 -239t-41 -198q-40 -186 -43 -190q-20 -17 -67 23q-48 42 -52 76q-5 40 31 226q34 183 88 422q5 22 -20 21q-28 -2 -61 -4t-70 -4q-37 -3 -77.5 -5
t-82.5 -5q-18 0 -27 -14q-93 -145 -190 -272.5t-194 -223.5q-99 -96 -194 -155q-101 -59 -191 -67q-79 -7 -129.5 19.5t-75.5 61.5q-24 36 -25.5 65.5t17.5 28.5q210 -8 428 138q194 133 398 391q14 17 -7 17q-56 0 -117.5 -4t-121.5 -9t-116.5 -9t-104.5 -3
q-74 5 -113 46.5t-12 53.5q67 27 272 41q196 12 411 11q16 -2 26 12q22 30 64 92q121 177 243 376q128 213 222 400q27 55 76 7zM1312 652q21 89 43.5 177.5t43.5 171.5q21 81 40 154.5t35 132.5q20 69 8 153q-6 37 -21 8q-47 -92 -98.5 -189t-105.5 -196
q-54 -100 -110.5 -200t-111.5 -196q-10 -16 12 -17q25 -2 49.5 -3t51.5 -2q27 -3 59 -5.5t74 -6.5q24 -3 31 18zM1857 1834q-32 -44 -92 -99q-64 -52 -97.5 -69.5t-84.5 -24.5q-112 -29 -203 63q-27 40 -35 92q8 68 120 11q23 -94 124 -90q43 3 77 19.5t132 86.5
q24 24 59 11z" />
    <glyph glyph-name="uni1EB0" unicode="&#x1eb0;" 
d="M1512 1542q36 -37 60 -117t21 -100q-14 -72 -33.5 -176.5t-43.5 -225.5t-49.5 -251.5t-50.5 -255.5q-25 -126 -48 -239t-41 -198q-40 -186 -43 -190q-20 -17 -67 23q-48 42 -52 76q-5 40 31 226q34 183 88 422q5 22 -20 21q-28 -2 -61 -4t-70 -4q-37 -3 -77.5 -5
t-82.5 -5q-18 0 -27 -14q-93 -145 -190 -272.5t-194 -223.5q-99 -96 -194 -155q-101 -59 -191 -67q-79 -7 -129.5 19.5t-75.5 61.5q-24 36 -25.5 65.5t17.5 28.5q210 -8 428 138q194 133 398 391q14 17 -7 17q-56 0 -117.5 -4t-121.5 -9t-116.5 -9t-104.5 -3
q-74 5 -113 46.5t-12 53.5q67 27 272 41q196 12 411 11q16 -2 26 12q22 30 64 92q121 177 243 376q128 213 222 400q27 55 76 7zM1312 652q21 89 43.5 177.5t43.5 171.5q21 81 40 154.5t35 132.5q20 69 8 153q-6 37 -21 8q-47 -92 -98.5 -189t-105.5 -196
q-54 -100 -110.5 -200t-111.5 -196q-10 -16 12 -17q25 -2 49.5 -3t51.5 -2q27 -3 59 -5.5t74 -6.5q24 -3 31 18zM1857 1834q-32 -44 -92 -99q-64 -52 -97.5 -69.5t-84.5 -24.5q-112 -29 -203 63q-27 40 -35 92q8 68 120 11q23 -94 124 -90q43 3 77 19.5t132 86.5
q24 24 59 11zM1397 2165h11q16 -9 107 -174q106 -152 108 -180l-5 -6h-11q-86 0 -307 231l-11 39q0 53 108 90z" />
    <glyph glyph-name="uni1EAE" unicode="&#x1eae;" 
d="M1512 1542q36 -37 60 -117t21 -100q-14 -72 -33.5 -176.5t-43.5 -225.5t-49.5 -251.5t-50.5 -255.5q-25 -126 -48 -239t-41 -198q-40 -186 -43 -190q-20 -17 -67 23q-48 42 -52 76q-5 40 31 226q34 183 88 422q5 22 -20 21q-28 -2 -61 -4t-70 -4q-37 -3 -77.5 -5
t-82.5 -5q-18 0 -27 -14q-93 -145 -190 -272.5t-194 -223.5q-99 -96 -194 -155q-101 -59 -191 -67q-79 -7 -129.5 19.5t-75.5 61.5q-24 36 -25.5 65.5t17.5 28.5q210 -8 428 138q194 133 398 391q14 17 -7 17q-56 0 -117.5 -4t-121.5 -9t-116.5 -9t-104.5 -3
q-74 5 -113 46.5t-12 53.5q67 27 272 41q196 12 411 11q16 -2 26 12q22 30 64 92q121 177 243 376q128 213 222 400q27 55 76 7zM1312 652q21 89 43.5 177.5t43.5 171.5q21 81 40 154.5t35 132.5q20 69 8 153q-6 37 -21 8q-47 -92 -98.5 -189t-105.5 -196
q-54 -100 -110.5 -200t-111.5 -196q-10 -16 12 -17q25 -2 49.5 -3t51.5 -2q27 -3 59 -5.5t74 -6.5q24 -3 31 18zM1857 1834q-32 -44 -92 -99q-64 -52 -97.5 -69.5t-84.5 -24.5q-112 -29 -203 63q-27 40 -35 92q8 68 120 11q23 -94 124 -90q43 3 77 19.5t132 86.5
q24 24 59 11zM1878 2045q111 -39 111 -86q-146 -114 -444 -168l-11 16z" />
    <glyph glyph-name="uni1EB2" unicode="&#x1eb2;" 
d="M1512 1542q36 -37 60 -117t21 -100q-14 -72 -33.5 -176.5t-43.5 -225.5t-49.5 -251.5t-50.5 -255.5q-25 -126 -48 -239t-41 -198q-40 -186 -43 -190q-20 -17 -67 23q-48 42 -52 76q-5 40 31 226q34 183 88 422q5 22 -20 21q-28 -2 -61 -4t-70 -4q-37 -3 -77.5 -5
t-82.5 -5q-18 0 -27 -14q-93 -145 -190 -272.5t-194 -223.5q-99 -96 -194 -155q-101 -59 -191 -67q-79 -7 -129.5 19.5t-75.5 61.5q-24 36 -25.5 65.5t17.5 28.5q210 -8 428 138q194 133 398 391q14 17 -7 17q-56 0 -117.5 -4t-121.5 -9t-116.5 -9t-104.5 -3
q-74 5 -113 46.5t-12 53.5q67 27 272 41q196 12 411 11q16 -2 26 12q22 30 64 92q121 177 243 376q128 213 222 400q27 55 76 7zM1312 652q21 89 43.5 177.5t43.5 171.5q21 81 40 154.5t35 132.5q20 69 8 153q-6 37 -21 8q-47 -92 -98.5 -189t-105.5 -196
q-54 -100 -110.5 -200t-111.5 -196q-10 -16 12 -17q25 -2 49.5 -3t51.5 -2q27 -3 59 -5.5t74 -6.5q24 -3 31 18zM1857 1834q-32 -44 -92 -99q-64 -52 -97.5 -69.5t-84.5 -24.5q-112 -29 -203 63q-27 40 -35 92q8 68 120 11q23 -94 124 -90q43 3 77 19.5t132 86.5
q24 24 59 11zM1574 1896q14 13 89.5 58t88.5 69q55 63 14.5 84.5t-82 19t-78 -14t-59.5 -17.5q-33 11 -18.5 31t57.5 45q24 13 73.5 26t101.5 17q51 3 93.5 -7t52.5 -41q10 -33 -9 -66.5t-52 -64.5q-33 -32 -75 -65.5t-72 -57.5q-60 -49 -64.5 -85t-13.5 -48
q-6 -9 -19.5 -2.5t-21.5 22.5q-9 16 -18.5 45t12.5 52z" />
    <glyph glyph-name="uni1EB4" unicode="&#x1eb4;" 
d="M1512 1542q36 -37 60 -117t21 -100q-14 -72 -33.5 -176.5t-43.5 -225.5t-49.5 -251.5t-50.5 -255.5q-25 -126 -48 -239t-41 -198q-40 -186 -43 -190q-20 -17 -67 23q-48 42 -52 76q-5 40 31 226q34 183 88 422q5 22 -20 21q-28 -2 -61 -4t-70 -4q-37 -3 -77.5 -5
t-82.5 -5q-18 0 -27 -14q-93 -145 -190 -272.5t-194 -223.5q-99 -96 -194 -155q-101 -59 -191 -67q-79 -7 -129.5 19.5t-75.5 61.5q-24 36 -25.5 65.5t17.5 28.5q210 -8 428 138q194 133 398 391q14 17 -7 17q-56 0 -117.5 -4t-121.5 -9t-116.5 -9t-104.5 -3
q-74 5 -113 46.5t-12 53.5q67 27 272 41q196 12 411 11q16 -2 26 12q22 30 64 92q121 177 243 376q128 213 222 400q27 55 76 7zM1312 652q21 89 43.5 177.5t43.5 171.5q21 81 40 154.5t35 132.5q20 69 8 153q-6 37 -21 8q-47 -92 -98.5 -189t-105.5 -196
q-54 -100 -110.5 -200t-111.5 -196q-10 -16 12 -17q25 -2 49.5 -3t51.5 -2q27 -3 59 -5.5t74 -6.5q24 -3 31 18zM1857 1834q-32 -44 -92 -99q-64 -52 -97.5 -69.5t-84.5 -24.5q-112 -29 -203 63q-27 40 -35 92q8 68 120 11q23 -94 124 -90q43 3 77 19.5t132 86.5
q24 24 59 11zM1740 2004q209 -35 264 -25l24 4q28 5 64 51l12 2l21 -13q19 -104 -156 -162l-42 -2q-275 45 -328 35q-28 -5 -104 -69l-20 8l-1 5q55 139 186 162l12 2q43 8 68 2z" />
    <glyph glyph-name="uni1EB6" unicode="&#x1eb6;" 
d="M1512 1542q36 -37 60 -117t21 -100q-14 -72 -33.5 -176.5t-43.5 -225.5t-49.5 -251.5t-50.5 -255.5q-25 -126 -48 -239t-41 -198q-40 -186 -43 -190q-20 -17 -67 23q-48 42 -52 76q-5 40 31 226q34 183 88 422q5 22 -20 21q-28 -2 -61 -4t-70 -4q-37 -3 -77.5 -5
t-82.5 -5q-18 0 -27 -14q-93 -145 -190 -272.5t-194 -223.5q-99 -96 -194 -155q-101 -59 -191 -67q-79 -7 -129.5 19.5t-75.5 61.5q-24 36 -25.5 65.5t17.5 28.5q210 -8 428 138q194 133 398 391q14 17 -7 17q-56 0 -117.5 -4t-121.5 -9t-116.5 -9t-104.5 -3
q-74 5 -113 46.5t-12 53.5q67 27 272 41q196 12 411 11q16 -2 26 12q22 30 64 92q121 177 243 376q128 213 222 400q27 55 76 7zM1312 652q21 89 43.5 177.5t43.5 171.5q21 81 40 154.5t35 132.5q20 69 8 153q-6 37 -21 8q-47 -92 -98.5 -189t-105.5 -196
q-54 -100 -110.5 -200t-111.5 -196q-10 -16 12 -17q25 -2 49.5 -3t51.5 -2q27 -3 59 -5.5t74 -6.5q24 -3 31 18zM1857 1834q-32 -44 -92 -99q-64 -52 -97.5 -69.5t-84.5 -24.5q-112 -29 -203 63q-27 40 -35 92q8 68 120 11q23 -94 124 -90q43 3 77 19.5t132 86.5
q24 24 59 11zM766 -279q43 -11 48 -53q4 -37 -19 -90q-23 -49 -55 -85q-35 -38 -59 -39q-29 -2 -39 42q-10 43 -2 104q8 63 39 96q33 36 87 25z" />
    <glyph glyph-name="Egrave" unicode="&#xc8;" horiz-adv-x="755" 
d="M527 1711q50 48 41 -54q-2 -16 -22 -90q-8 -30 24 -28q83 3 165 1t156 -5q165 -7 254 -22q84 -16 124 -63t-22 -38q-5 0 -82 -4q-36 -3 -82.5 -6.5t-101.5 -6.5q-55 -5 -116 -9.5t-124 -9.5q-54 -4 -108.5 -8.5t-105.5 -7.5q-39 -4 -48 -39q-16 -57 -33.5 -119
t-35.5 -128q-20 -69 -40 -141.5t-40 -144.5q-8 -30 25 -30q79 0 117 -2q81 -4 114 -8q51 -6 107 -54q58 -48 4 -48q-41 -1 -92.5 -3.5t-106.5 -5.5q-45 -3 -90 -6.5t-86 -6.5q-38 -3 -47 -38q-20 -75 -38 -144.5t-33 -132.5q-33 -128 -54 -240q-5 -27 -3.5 -64.5t47.5 -44.5
q172 -22 368 1q191 22 270 68q58 34 32 -28q-28 -86 -117 -129q-63 -36 -173.5 -58t-227 -23.5t-188.5 47.5q-22 15 -57 48q-27 26 -64 93.5t-38 112.5q-1 41 38 187q34 124 92 303q8 26 -20 35q-52 15 -91.5 54t-24.5 50q16 12 70 20q47 7 93 10q29 2 38 31q23 69 47 140
t48 140q23 68 45.5 133t44.5 125q9 29 -28 27q-45 -4 -83.5 -6.5t-68.5 -4.5q-82 -5 -89 -4q-75 7 -115.5 64t-14.5 73q42 25 180 44q57 8 125.5 13t143.5 9q27 1 40 33q48 133 58 143zM613 2058h11q16 -9 107 -174q106 -152 108 -180l-5 -6h-11q-86 0 -307 231l-11 39
q0 53 108 90z" />
    <glyph glyph-name="Eacute" unicode="&#xc9;" horiz-adv-x="755" 
d="M527 1711q50 48 41 -54q-2 -16 -22 -90q-8 -30 24 -28q83 3 165 1t156 -5q165 -7 254 -22q84 -16 124 -63t-22 -38q-5 0 -82 -4q-36 -3 -82.5 -6.5t-101.5 -6.5q-55 -5 -116 -9.5t-124 -9.5q-54 -4 -108.5 -8.5t-105.5 -7.5q-39 -4 -48 -39q-16 -57 -33.5 -119
t-35.5 -128q-20 -69 -40 -141.5t-40 -144.5q-8 -30 25 -30q79 0 117 -2q81 -4 114 -8q51 -6 107 -54q58 -48 4 -48q-41 -1 -92.5 -3.5t-106.5 -5.5q-45 -3 -90 -6.5t-86 -6.5q-38 -3 -47 -38q-20 -75 -38 -144.5t-33 -132.5q-33 -128 -54 -240q-5 -27 -3.5 -64.5t47.5 -44.5
q172 -22 368 1q191 22 270 68q58 34 32 -28q-28 -86 -117 -129q-63 -36 -173.5 -58t-227 -23.5t-188.5 47.5q-22 15 -57 48q-27 26 -64 93.5t-38 112.5q-1 41 38 187q34 124 92 303q8 26 -20 35q-52 15 -91.5 54t-24.5 50q16 12 70 20q47 7 93 10q29 2 38 31q23 69 47 140
t48 140q23 68 45.5 133t44.5 125q9 29 -28 27q-45 -4 -83.5 -6.5t-68.5 -4.5q-82 -5 -89 -4q-75 7 -115.5 64t-14.5 73q42 25 180 44q57 8 125.5 13t143.5 9q27 1 40 33q48 133 58 143zM1092 1883q111 -39 111 -86q-146 -114 -444 -168l-11 16z" />
    <glyph glyph-name="uni1EBA" unicode="&#x1eba;" horiz-adv-x="755" 
d="M527 1711q50 48 41 -54q-2 -16 -22 -90q-8 -30 24 -28q83 3 165 1t156 -5q165 -7 254 -22q84 -16 124 -63t-22 -38q-5 0 -82 -4q-36 -3 -82.5 -6.5t-101.5 -6.5q-55 -5 -116 -9.5t-124 -9.5q-54 -4 -108.5 -8.5t-105.5 -7.5q-39 -4 -48 -39q-16 -57 -33.5 -119
t-35.5 -128q-20 -69 -40 -141.5t-40 -144.5q-8 -30 25 -30q79 0 117 -2q81 -4 114 -8q51 -6 107 -54q58 -48 4 -48q-41 -1 -92.5 -3.5t-106.5 -5.5q-45 -3 -90 -6.5t-86 -6.5q-38 -3 -47 -38q-20 -75 -38 -144.5t-33 -132.5q-33 -128 -54 -240q-5 -27 -3.5 -64.5t47.5 -44.5
q172 -22 368 1q191 22 270 68q58 34 32 -28q-28 -86 -117 -129q-63 -36 -173.5 -58t-227 -23.5t-188.5 47.5q-22 15 -57 48q-27 26 -64 93.5t-38 112.5q-1 41 38 187q34 124 92 303q8 26 -20 35q-52 15 -91.5 54t-24.5 50q16 12 70 20q47 7 93 10q29 2 38 31q23 69 47 140
t48 140q23 68 45.5 133t44.5 125q9 29 -28 27q-45 -4 -83.5 -6.5t-68.5 -4.5q-82 -5 -89 -4q-75 7 -115.5 64t-14.5 73q42 25 180 44q57 8 125.5 13t143.5 9q27 1 40 33q48 133 58 143zM732 1726q14 13 89.5 58t88.5 69q55 63 14.5 84.5t-82 19t-78 -14t-59.5 -17.5
q-33 11 -18.5 31t57.5 45q24 13 73.5 26t101.5 17q51 3 93.5 -7t52.5 -41q10 -33 -9 -66.5t-52 -64.5q-33 -32 -75 -65.5t-72 -57.5q-60 -49 -64.5 -85t-13.5 -48q-6 -9 -19.5 -2.5t-21.5 22.5q-9 16 -18.5 45t12.5 52z" />
    <glyph glyph-name="uni1EBC" unicode="&#x1ebc;" horiz-adv-x="755" 
d="M527 1711q50 48 41 -54q-2 -16 -22 -90q-8 -30 24 -28q83 3 165 1t156 -5q165 -7 254 -22q84 -16 124 -63t-22 -38q-5 0 -82 -4q-36 -3 -82.5 -6.5t-101.5 -6.5q-55 -5 -116 -9.5t-124 -9.5q-54 -4 -108.5 -8.5t-105.5 -7.5q-39 -4 -48 -39q-16 -57 -33.5 -119
t-35.5 -128q-20 -69 -40 -141.5t-40 -144.5q-8 -30 25 -30q79 0 117 -2q81 -4 114 -8q51 -6 107 -54q58 -48 4 -48q-41 -1 -92.5 -3.5t-106.5 -5.5q-45 -3 -90 -6.5t-86 -6.5q-38 -3 -47 -38q-20 -75 -38 -144.5t-33 -132.5q-33 -128 -54 -240q-5 -27 -3.5 -64.5t47.5 -44.5
q172 -22 368 1q191 22 270 68q58 34 32 -28q-28 -86 -117 -129q-63 -36 -173.5 -58t-227 -23.5t-188.5 47.5q-22 15 -57 48q-27 26 -64 93.5t-38 112.5q-1 41 38 187q34 124 92 303q8 26 -20 35q-52 15 -91.5 54t-24.5 50q16 12 70 20q47 7 93 10q29 2 38 31q23 69 47 140
t48 140q23 68 45.5 133t44.5 125q9 29 -28 27q-45 -4 -83.5 -6.5t-68.5 -4.5q-82 -5 -89 -4q-75 7 -115.5 64t-14.5 73q42 25 180 44q57 8 125.5 13t143.5 9q27 1 40 33q48 133 58 143zM912 1841q209 -35 264 -25l24 4q28 5 64 51l12 2l21 -13q19 -104 -156 -162l-42 -2
q-275 45 -328 35q-28 -5 -104 -69l-20 8l-1 5q55 139 186 162l12 2q43 8 68 2z" />
    <glyph glyph-name="uni1EB8" unicode="&#x1eb8;" horiz-adv-x="755" 
d="M527 1711q50 48 41 -54q-2 -16 -22 -90q-8 -30 24 -28q83 3 165 1t156 -5q165 -7 254 -22q84 -16 124 -63t-22 -38q-5 0 -82 -4q-36 -3 -82.5 -6.5t-101.5 -6.5q-55 -5 -116 -9.5t-124 -9.5q-54 -4 -108.5 -8.5t-105.5 -7.5q-39 -4 -48 -39q-16 -57 -33.5 -119
t-35.5 -128q-20 -69 -40 -141.5t-40 -144.5q-8 -30 25 -30q79 0 117 -2q81 -4 114 -8q51 -6 107 -54q58 -48 4 -48q-41 -1 -92.5 -3.5t-106.5 -5.5q-45 -3 -90 -6.5t-86 -6.5q-38 -3 -47 -38q-20 -75 -38 -144.5t-33 -132.5q-33 -128 -54 -240q-5 -27 -3.5 -64.5t47.5 -44.5
q172 -22 368 1q191 22 270 68q58 34 32 -28q-28 -86 -117 -129q-63 -36 -173.5 -58t-227 -23.5t-188.5 47.5q-22 15 -57 48q-27 26 -64 93.5t-38 112.5q-1 41 38 187q34 124 92 303q8 26 -20 35q-52 15 -91.5 54t-24.5 50q16 12 70 20q47 7 93 10q29 2 38 31q23 69 47 140
t48 140q23 68 45.5 133t44.5 125q9 29 -28 27q-45 -4 -83.5 -6.5t-68.5 -4.5q-82 -5 -89 -4q-75 7 -115.5 64t-14.5 73q42 25 180 44q57 8 125.5 13t143.5 9q27 1 40 33q48 133 58 143zM384 -279q43 -11 48 -53q4 -37 -19 -90q-23 -49 -55 -85q-35 -38 -59 -39
q-29 -2 -39 42q-10 43 -2 104q8 63 39 96q33 36 87 25z" />
    <glyph glyph-name="Ecircumflex" unicode="&#xca;" horiz-adv-x="755" 
d="M527 1711q50 48 41 -54q-2 -16 -22 -90q-8 -30 24 -28q83 3 165 1t156 -5q165 -7 254 -22q84 -16 124 -63t-22 -38q-5 0 -82 -4q-36 -3 -82.5 -6.5t-101.5 -6.5q-55 -5 -116 -9.5t-124 -9.5q-54 -4 -108.5 -8.5t-105.5 -7.5q-39 -4 -48 -39q-16 -57 -33.5 -119
t-35.5 -128q-20 -69 -40 -141.5t-40 -144.5q-8 -30 25 -30q79 0 117 -2q81 -4 114 -8q51 -6 107 -54q58 -48 4 -48q-41 -1 -92.5 -3.5t-106.5 -5.5q-45 -3 -90 -6.5t-86 -6.5q-38 -3 -47 -38q-20 -75 -38 -144.5t-33 -132.5q-33 -128 -54 -240q-5 -27 -3.5 -64.5t47.5 -44.5
q172 -22 368 1q191 22 270 68q58 34 32 -28q-28 -86 -117 -129q-63 -36 -173.5 -58t-227 -23.5t-188.5 47.5q-22 15 -57 48q-27 26 -64 93.5t-38 112.5q-1 41 38 187q34 124 92 303q8 26 -20 35q-52 15 -91.5 54t-24.5 50q16 12 70 20q47 7 93 10q29 2 38 31q23 69 47 140
t48 140q23 68 45.5 133t44.5 125q9 29 -28 27q-45 -4 -83.5 -6.5t-68.5 -4.5q-82 -5 -89 -4q-75 7 -115.5 64t-14.5 73q42 25 180 44q57 8 125.5 13t143.5 9q27 1 40 33q48 133 58 143zM901 1904h5q116 -46 186 -251l-3 -20l-6 -6h-10q-55 73 -202 162q-83 -28 -221 -136
h-14q17 100 223 231z" />
    <glyph glyph-name="uni1EC0" unicode="&#x1ec0;" horiz-adv-x="755" 
d="M527 1711q50 48 41 -54q-2 -16 -22 -90q-8 -30 24 -28q83 3 165 1t156 -5q165 -7 254 -22q84 -16 124 -63t-22 -38q-5 0 -82 -4q-36 -3 -82.5 -6.5t-101.5 -6.5q-55 -5 -116 -9.5t-124 -9.5q-54 -4 -108.5 -8.5t-105.5 -7.5q-39 -4 -48 -39q-16 -57 -33.5 -119
t-35.5 -128q-20 -69 -40 -141.5t-40 -144.5q-8 -30 25 -30q79 0 117 -2q81 -4 114 -8q51 -6 107 -54q58 -48 4 -48q-41 -1 -92.5 -3.5t-106.5 -5.5q-45 -3 -90 -6.5t-86 -6.5q-38 -3 -47 -38q-20 -75 -38 -144.5t-33 -132.5q-33 -128 -54 -240q-5 -27 -3.5 -64.5t47.5 -44.5
q172 -22 368 1q191 22 270 68q58 34 32 -28q-28 -86 -117 -129q-63 -36 -173.5 -58t-227 -23.5t-188.5 47.5q-22 15 -57 48q-27 26 -64 93.5t-38 112.5q-1 41 38 187q34 124 92 303q8 26 -20 35q-52 15 -91.5 54t-24.5 50q16 12 70 20q47 7 93 10q29 2 38 31q23 69 47 140
t48 140q23 68 45.5 133t44.5 125q9 29 -28 27q-45 -4 -83.5 -6.5t-68.5 -4.5q-82 -5 -89 -4q-75 7 -115.5 64t-14.5 73q42 25 180 44q57 8 125.5 13t143.5 9q27 1 40 33q48 133 58 143zM901 1904h5q116 -46 186 -251l-3 -20l-6 -6h-10q-55 73 -202 162q-83 -28 -221 -136
h-14q17 100 223 231zM1002 2150h11q16 -9 107 -174q106 -152 108 -180l-5 -6h-11q-86 0 -307 231l-11 39q0 53 108 90z" />
    <glyph glyph-name="uni1EBE" unicode="&#x1ebe;" horiz-adv-x="755" 
d="M527 1711q50 48 41 -54q-2 -16 -22 -90q-8 -30 24 -28q83 3 165 1t156 -5q165 -7 254 -22q84 -16 124 -63t-22 -38q-5 0 -82 -4q-36 -3 -82.5 -6.5t-101.5 -6.5q-55 -5 -116 -9.5t-124 -9.5q-54 -4 -108.5 -8.5t-105.5 -7.5q-39 -4 -48 -39q-16 -57 -33.5 -119
t-35.5 -128q-20 -69 -40 -141.5t-40 -144.5q-8 -30 25 -30q79 0 117 -2q81 -4 114 -8q51 -6 107 -54q58 -48 4 -48q-41 -1 -92.5 -3.5t-106.5 -5.5q-45 -3 -90 -6.5t-86 -6.5q-38 -3 -47 -38q-20 -75 -38 -144.5t-33 -132.5q-33 -128 -54 -240q-5 -27 -3.5 -64.5t47.5 -44.5
q172 -22 368 1q191 22 270 68q58 34 32 -28q-28 -86 -117 -129q-63 -36 -173.5 -58t-227 -23.5t-188.5 47.5q-22 15 -57 48q-27 26 -64 93.5t-38 112.5q-1 41 38 187q34 124 92 303q8 26 -20 35q-52 15 -91.5 54t-24.5 50q16 12 70 20q47 7 93 10q29 2 38 31q23 69 47 140
t48 140q23 68 45.5 133t44.5 125q9 29 -28 27q-45 -4 -83.5 -6.5t-68.5 -4.5q-82 -5 -89 -4q-75 7 -115.5 64t-14.5 73q42 25 180 44q57 8 125.5 13t143.5 9q27 1 40 33q48 133 58 143zM901 1904h5q116 -46 186 -251l-3 -20l-6 -6h-10q-55 73 -202 162q-83 -28 -221 -136
h-14q17 100 223 231zM1431 2003q111 -39 111 -86q-146 -114 -444 -168l-11 16z" />
    <glyph glyph-name="uni1EC2" unicode="&#x1ec2;" horiz-adv-x="755" 
d="M527 1711q50 48 41 -54q-2 -16 -22 -90q-8 -30 24 -28q83 3 165 1t156 -5q165 -7 254 -22q84 -16 124 -63t-22 -38q-5 0 -82 -4q-36 -3 -82.5 -6.5t-101.5 -6.5q-55 -5 -116 -9.5t-124 -9.5q-54 -4 -108.5 -8.5t-105.5 -7.5q-39 -4 -48 -39q-16 -57 -33.5 -119
t-35.5 -128q-20 -69 -40 -141.5t-40 -144.5q-8 -30 25 -30q79 0 117 -2q81 -4 114 -8q51 -6 107 -54q58 -48 4 -48q-41 -1 -92.5 -3.5t-106.5 -5.5q-45 -3 -90 -6.5t-86 -6.5q-38 -3 -47 -38q-20 -75 -38 -144.5t-33 -132.5q-33 -128 -54 -240q-5 -27 -3.5 -64.5t47.5 -44.5
q172 -22 368 1q191 22 270 68q58 34 32 -28q-28 -86 -117 -129q-63 -36 -173.5 -58t-227 -23.5t-188.5 47.5q-22 15 -57 48q-27 26 -64 93.5t-38 112.5q-1 41 38 187q34 124 92 303q8 26 -20 35q-52 15 -91.5 54t-24.5 50q16 12 70 20q47 7 93 10q29 2 38 31q23 69 47 140
t48 140q23 68 45.5 133t44.5 125q9 29 -28 27q-45 -4 -83.5 -6.5t-68.5 -4.5q-82 -5 -89 -4q-75 7 -115.5 64t-14.5 73q42 25 180 44q57 8 125.5 13t143.5 9q27 1 40 33q48 133 58 143zM901 1904h5q116 -46 186 -251l-3 -20l-6 -6h-10q-55 73 -202 162q-83 -28 -221 -136
h-14q17 100 223 231zM1093 1840q14 13 89.5 58t88.5 69q55 63 14.5 84.5t-82 19t-78 -14t-59.5 -17.5q-33 11 -18.5 31t57.5 45q24 13 73.5 26t101.5 17q51 3 93.5 -7t52.5 -41q10 -33 -9 -66.5t-52 -64.5q-33 -32 -75 -65.5t-72 -57.5q-60 -49 -64.5 -85t-13.5 -48
q-6 -9 -19.5 -2.5t-21.5 22.5q-9 16 -18.5 45t12.5 52z" />
    <glyph glyph-name="uni1EC4" unicode="&#x1ec4;" horiz-adv-x="755" 
d="M527 1711q50 48 41 -54q-2 -16 -22 -90q-8 -30 24 -28q83 3 165 1t156 -5q165 -7 254 -22q84 -16 124 -63t-22 -38q-5 0 -82 -4q-36 -3 -82.5 -6.5t-101.5 -6.5q-55 -5 -116 -9.5t-124 -9.5q-54 -4 -108.5 -8.5t-105.5 -7.5q-39 -4 -48 -39q-16 -57 -33.5 -119
t-35.5 -128q-20 -69 -40 -141.5t-40 -144.5q-8 -30 25 -30q79 0 117 -2q81 -4 114 -8q51 -6 107 -54q58 -48 4 -48q-41 -1 -92.5 -3.5t-106.5 -5.5q-45 -3 -90 -6.5t-86 -6.5q-38 -3 -47 -38q-20 -75 -38 -144.5t-33 -132.5q-33 -128 -54 -240q-5 -27 -3.5 -64.5t47.5 -44.5
q172 -22 368 1q191 22 270 68q58 34 32 -28q-28 -86 -117 -129q-63 -36 -173.5 -58t-227 -23.5t-188.5 47.5q-22 15 -57 48q-27 26 -64 93.5t-38 112.5q-1 41 38 187q34 124 92 303q8 26 -20 35q-52 15 -91.5 54t-24.5 50q16 12 70 20q47 7 93 10q29 2 38 31q23 69 47 140
t48 140q23 68 45.5 133t44.5 125q9 29 -28 27q-45 -4 -83.5 -6.5t-68.5 -4.5q-82 -5 -89 -4q-75 7 -115.5 64t-14.5 73q42 25 180 44q57 8 125.5 13t143.5 9q27 1 40 33q48 133 58 143zM901 1904h5q116 -46 186 -251l-3 -20l-6 -6h-10q-55 73 -202 162q-83 -28 -221 -136
h-14q17 100 223 231zM968 2053q209 -35 264 -25l24 4q28 5 64 51l12 2l21 -13q19 -104 -156 -162l-42 -2q-275 45 -328 35q-28 -5 -104 -69l-20 8l-1 5q55 139 186 162l12 2q43 8 68 2z" />
    <glyph glyph-name="uni1EC6" unicode="&#x1ec6;" horiz-adv-x="755" 
d="M527 1711q50 48 41 -54q-2 -16 -22 -90q-8 -30 24 -28q83 3 165 1t156 -5q165 -7 254 -22q84 -16 124 -63t-22 -38q-5 0 -82 -4q-36 -3 -82.5 -6.5t-101.5 -6.5q-55 -5 -116 -9.5t-124 -9.5q-54 -4 -108.5 -8.5t-105.5 -7.5q-39 -4 -48 -39q-16 -57 -33.5 -119
t-35.5 -128q-20 -69 -40 -141.5t-40 -144.5q-8 -30 25 -30q79 0 117 -2q81 -4 114 -8q51 -6 107 -54q58 -48 4 -48q-41 -1 -92.5 -3.5t-106.5 -5.5q-45 -3 -90 -6.5t-86 -6.5q-38 -3 -47 -38q-20 -75 -38 -144.5t-33 -132.5q-33 -128 -54 -240q-5 -27 -3.5 -64.5t47.5 -44.5
q172 -22 368 1q191 22 270 68q58 34 32 -28q-28 -86 -117 -129q-63 -36 -173.5 -58t-227 -23.5t-188.5 47.5q-22 15 -57 48q-27 26 -64 93.5t-38 112.5q-1 41 38 187q34 124 92 303q8 26 -20 35q-52 15 -91.5 54t-24.5 50q16 12 70 20q47 7 93 10q29 2 38 31q23 69 47 140
t48 140q23 68 45.5 133t44.5 125q9 29 -28 27q-45 -4 -83.5 -6.5t-68.5 -4.5q-82 -5 -89 -4q-75 7 -115.5 64t-14.5 73q42 25 180 44q57 8 125.5 13t143.5 9q27 1 40 33q48 133 58 143zM901 1904h5q116 -46 186 -251l-3 -20l-6 -6h-10q-55 73 -202 162q-83 -28 -221 -136
h-14q17 100 223 231zM384 -279q43 -11 48 -53q4 -37 -19 -90q-23 -49 -55 -85q-35 -38 -59 -39q-29 -2 -39 42q-10 43 -2 104q8 63 39 96q33 36 87 25z" />
    <glyph glyph-name="Igrave" unicode="&#xcc;" horiz-adv-x="469" 
d="M628 1554q47 -3 61.5 -37.5t11.5 -68.5q-3 -38 -74 -296t-155 -553q-84 -296 -154 -537.5t-73 -247.5q-15 -31 -61 23.5t-46 96.5q-1 50 53.5 231.5t129.5 406.5t155 447.5t131 354.5q17 44 -10 45q-40 1 -100 -58.5t-126 -152.5q-66 -94 -131 -209t-115 -225
q-40 -95 -60 -100t-26 37t1 109t22 118q34 134 106.5 248t156.5 197q180 177 303 171zM613 2058h11q16 -9 107 -174q106 -152 108 -180l-5 -6h-11q-86 0 -307 231l-11 39q0 53 108 90z" />
    <glyph glyph-name="Iacute" unicode="&#xcd;" horiz-adv-x="469" 
d="M628 1554q47 -3 61.5 -37.5t11.5 -68.5q-3 -38 -74 -296t-155 -553q-84 -296 -154 -537.5t-73 -247.5q-15 -31 -61 23.5t-46 96.5q-1 50 53.5 231.5t129.5 406.5t155 447.5t131 354.5q17 44 -10 45q-40 1 -100 -58.5t-126 -152.5q-66 -94 -131 -209t-115 -225
q-40 -95 -60 -100t-26 37t1 109t22 118q34 134 106.5 248t156.5 197q180 177 303 171zM964 1883q111 -39 111 -86q-146 -114 -444 -168l-11 16z" />
    <glyph glyph-name="uni1EC8" unicode="&#x1ec8;" horiz-adv-x="469" 
d="M628 1554q47 -3 61.5 -37.5t11.5 -68.5q-3 -38 -74 -296t-155 -553q-84 -296 -154 -537.5t-73 -247.5q-15 -31 -61 23.5t-46 96.5q-1 50 53.5 231.5t129.5 406.5t155 447.5t131 354.5q17 44 -10 45q-40 1 -100 -58.5t-126 -152.5q-66 -94 -131 -209t-115 -225
q-40 -95 -60 -100t-26 37t1 109t22 118q34 134 106.5 248t156.5 197q180 177 303 171zM661 1726q14 13 89.5 58t88.5 69q55 63 14.5 84.5t-82 19t-78 -14t-59.5 -17.5q-33 11 -18.5 31t57.5 45q24 13 73.5 26t101.5 17q51 3 93.5 -7t52.5 -41q10 -33 -9 -66.5t-52 -64.5
q-33 -32 -75 -65.5t-72 -57.5q-60 -49 -64.5 -85t-13.5 -48q-6 -9 -19.5 -2.5t-21.5 22.5q-9 16 -18.5 45t12.5 52z" />
    <glyph glyph-name="Itilde" unicode="&#x128;" horiz-adv-x="469" 
d="M628 1554q47 -3 61.5 -37.5t11.5 -68.5q-3 -38 -74 -296t-155 -553q-84 -296 -154 -537.5t-73 -247.5q-15 -31 -61 23.5t-46 96.5q-1 50 53.5 231.5t129.5 406.5t155 447.5t131 354.5q17 44 -10 45q-40 1 -100 -58.5t-126 -152.5q-66 -94 -131 -209t-115 -225
q-40 -95 -60 -100t-26 37t1 109t22 118q34 134 106.5 248t156.5 197q180 177 303 171zM685 1841q209 -35 264 -25l24 4q28 5 64 51l12 2l21 -13q19 -104 -156 -162l-42 -2q-275 45 -328 35q-28 -5 -104 -69l-20 8l-1 5q55 139 186 162l12 2q43 8 68 2z" />
    <glyph glyph-name="uni1ECA" unicode="&#x1eca;" horiz-adv-x="469" 
d="M628 1554q47 -3 61.5 -37.5t11.5 -68.5q-3 -38 -74 -296t-155 -553q-84 -296 -154 -537.5t-73 -247.5q-15 -31 -61 23.5t-46 96.5q-1 50 53.5 231.5t129.5 406.5t155 447.5t131 354.5q17 44 -10 45q-40 1 -100 -58.5t-126 -152.5q-66 -94 -131 -209t-115 -225
q-40 -95 -60 -100t-26 37t1 109t22 118q34 134 106.5 248t156.5 197q180 177 303 171zM108 -314q43 -11 48 -53q4 -37 -19 -90q-23 -49 -55 -85q-35 -38 -59 -39q-29 -2 -39 42q-10 43 -2 104q8 63 39 96q33 36 87 25z" />
    <glyph glyph-name="Ograve" unicode="&#xd2;" horiz-adv-x="1011" 
d="M284 779q-136 -414 -71.5 -616t211.5 -207q151 -3 320.5 226.5t244.5 564.5q42 244 0.5 326.5t-116.5 70.5q-98 -17 -188.5 -142t-118.5 -210q-13 -39 -26 -30.5t-13 35.5q-5 115 42 236.5t131 196.5q118 102 243 93q26 -3 28 24q6 136 -72.5 141t-188.5 -81
q-117 -91 -238.5 -259.5t-187.5 -368.5zM222 -204q-132 60 -171.5 248.5t-5.5 392.5q34 203 114.5 403.5t169.5 337.5q104 161 232 263t242 127q113 24 191.5 -37t82.5 -226q0 -15 -7 -34q-4 -14 14 -60q65 -168 15 -418t-152 -469q-35 -74 -102.5 -188.5t-162 -209.5
t-211.5 -142.5t-249 12.5zM613 2058h11q16 -9 107 -174q106 -152 108 -180l-5 -6h-11q-86 0 -307 231l-11 39q0 53 108 90z" />
    <glyph glyph-name="Oacute" unicode="&#xd3;" horiz-adv-x="1011" 
d="M284 779q-136 -414 -71.5 -616t211.5 -207q151 -3 320.5 226.5t244.5 564.5q42 244 0.5 326.5t-116.5 70.5q-98 -17 -188.5 -142t-118.5 -210q-13 -39 -26 -30.5t-13 35.5q-5 115 42 236.5t131 196.5q118 102 243 93q26 -3 28 24q6 136 -72.5 141t-188.5 -81
q-117 -91 -238.5 -259.5t-187.5 -368.5zM222 -204q-132 60 -171.5 248.5t-5.5 392.5q34 203 114.5 403.5t169.5 337.5q104 161 232 263t242 127q113 24 191.5 -37t82.5 -226q0 -15 -7 -34q-4 -14 14 -60q65 -168 15 -418t-152 -469q-35 -74 -102.5 -188.5t-162 -209.5
t-211.5 -142.5t-249 12.5zM1092 1883q111 -39 111 -86q-146 -114 -444 -168l-11 16z" />
    <glyph glyph-name="uni1ECE" unicode="&#x1ece;" horiz-adv-x="1011" 
d="M284 779q-136 -414 -71.5 -616t211.5 -207q151 -3 320.5 226.5t244.5 564.5q42 244 0.5 326.5t-116.5 70.5q-98 -17 -188.5 -142t-118.5 -210q-13 -39 -26 -30.5t-13 35.5q-5 115 42 236.5t131 196.5q118 102 243 93q26 -3 28 24q6 136 -72.5 141t-188.5 -81
q-117 -91 -238.5 -259.5t-187.5 -368.5zM222 -204q-132 60 -171.5 248.5t-5.5 392.5q34 203 114.5 403.5t169.5 337.5q104 161 232 263t242 127q113 24 191.5 -37t82.5 -226q0 -15 -7 -34q-4 -14 14 -60q65 -168 15 -418t-152 -469q-35 -74 -102.5 -188.5t-162 -209.5
t-211.5 -142.5t-249 12.5zM937 1726q14 13 89.5 58t88.5 69q55 63 14.5 84.5t-82 19t-78 -14t-59.5 -17.5q-33 11 -18.5 31t57.5 45q24 13 73.5 26t101.5 17q51 3 93.5 -7t52.5 -41q10 -33 -9 -66.5t-52 -64.5q-33 -32 -75 -65.5t-72 -57.5q-60 -49 -64.5 -85t-13.5 -48
q-6 -9 -19.5 -2.5t-21.5 22.5q-9 16 -18.5 45t12.5 52z" />
    <glyph glyph-name="Otilde" unicode="&#xd5;" horiz-adv-x="1011" 
d="M284 779q-136 -414 -71.5 -616t211.5 -207q151 -3 320.5 226.5t244.5 564.5q42 244 0.5 326.5t-116.5 70.5q-98 -17 -188.5 -142t-118.5 -210q-13 -39 -26 -30.5t-13 35.5q-5 115 42 236.5t131 196.5q118 102 243 93q26 -3 28 24q6 136 -72.5 141t-188.5 -81
q-117 -91 -238.5 -259.5t-187.5 -368.5zM222 -204q-132 60 -171.5 248.5t-5.5 392.5q34 203 114.5 403.5t169.5 337.5q104 161 232 263t242 127q113 24 191.5 -37t82.5 -226q0 -15 -7 -34q-4 -14 14 -60q65 -168 15 -418t-152 -469q-35 -74 -102.5 -188.5t-162 -209.5
t-211.5 -142.5t-249 12.5zM912 1841q209 -35 264 -25l24 4q28 5 64 51l12 2l21 -13q19 -104 -156 -162l-42 -2q-275 45 -328 35q-28 -5 -104 -69l-20 8l-1 5q55 139 186 162l12 2q43 8 68 2z" />
    <glyph glyph-name="uni1ECC" unicode="&#x1ecc;" horiz-adv-x="1011" 
d="M284 779q-136 -414 -71.5 -616t211.5 -207q151 -3 320.5 226.5t244.5 564.5q42 244 0.5 326.5t-116.5 70.5q-98 -17 -188.5 -142t-118.5 -210q-13 -39 -26 -30.5t-13 35.5q-5 115 42 236.5t131 196.5q118 102 243 93q26 -3 28 24q6 136 -72.5 141t-188.5 -81
q-117 -91 -238.5 -259.5t-187.5 -368.5zM222 -204q-132 60 -171.5 248.5t-5.5 392.5q34 203 114.5 403.5t169.5 337.5q104 161 232 263t242 127q113 24 191.5 -37t82.5 -226q0 -15 -7 -34q-4 -14 14 -60q65 -168 15 -418t-152 -469q-35 -74 -102.5 -188.5t-162 -209.5
t-211.5 -142.5t-249 12.5zM384 -314q43 -11 48 -53q4 -37 -19 -90q-23 -49 -55 -85q-35 -38 -59 -39q-29 -2 -39 42q-10 43 -2 104q8 63 39 96q33 36 87 25z" />
    <glyph glyph-name="Ocircumflex" unicode="&#xd4;" horiz-adv-x="1011" 
d="M284 779q-136 -414 -71.5 -616t211.5 -207q151 -3 320.5 226.5t244.5 564.5q42 244 0.5 326.5t-116.5 70.5q-98 -17 -188.5 -142t-118.5 -210q-13 -39 -26 -30.5t-13 35.5q-5 115 42 236.5t131 196.5q118 102 243 93q26 -3 28 24q6 136 -72.5 141t-188.5 -81
q-117 -91 -238.5 -259.5t-187.5 -368.5zM222 -204q-132 60 -171.5 248.5t-5.5 392.5q34 203 114.5 403.5t169.5 337.5q104 161 232 263t242 127q113 24 191.5 -37t82.5 -226q0 -15 -7 -34q-4 -14 14 -60q65 -168 15 -418t-152 -469q-35 -74 -102.5 -188.5t-162 -209.5
t-211.5 -142.5t-249 12.5zM901 1904h5q116 -46 186 -251l-3 -20l-6 -6h-10q-55 73 -202 162q-83 -28 -221 -136h-14q17 100 223 231z" />
    <glyph glyph-name="uni1ED2" unicode="&#x1ed2;" horiz-adv-x="1011" 
d="M284 779q-136 -414 -71.5 -616t211.5 -207q151 -3 320.5 226.5t244.5 564.5q42 244 0.5 326.5t-116.5 70.5q-98 -17 -188.5 -142t-118.5 -210q-13 -39 -26 -30.5t-13 35.5q-5 115 42 236.5t131 196.5q118 102 243 93q26 -3 28 24q6 136 -72.5 141t-188.5 -81
q-117 -91 -238.5 -259.5t-187.5 -368.5zM222 -204q-132 60 -171.5 248.5t-5.5 392.5q34 203 114.5 403.5t169.5 337.5q104 161 232 263t242 127q113 24 191.5 -37t82.5 -226q0 -15 -7 -34q-4 -14 14 -60q65 -168 15 -418t-152 -469q-35 -74 -102.5 -188.5t-162 -209.5
t-211.5 -142.5t-249 12.5zM901 1904h5q116 -46 186 -251l-3 -20l-6 -6h-10q-55 73 -202 162q-83 -28 -221 -136h-14q17 100 223 231zM1002 2150h11q16 -9 107 -174q106 -152 108 -180l-5 -6h-11q-86 0 -307 231l-11 39q0 53 108 90z" />
    <glyph glyph-name="uni1ED0" unicode="&#x1ed0;" horiz-adv-x="1011" 
d="M284 779q-136 -414 -71.5 -616t211.5 -207q151 -3 320.5 226.5t244.5 564.5q42 244 0.5 326.5t-116.5 70.5q-98 -17 -188.5 -142t-118.5 -210q-13 -39 -26 -30.5t-13 35.5q-5 115 42 236.5t131 196.5q118 102 243 93q26 -3 28 24q6 136 -72.5 141t-188.5 -81
q-117 -91 -238.5 -259.5t-187.5 -368.5zM222 -204q-132 60 -171.5 248.5t-5.5 392.5q34 203 114.5 403.5t169.5 337.5q104 161 232 263t242 127q113 24 191.5 -37t82.5 -226q0 -15 -7 -34q-4 -14 14 -60q65 -168 15 -418t-152 -469q-35 -74 -102.5 -188.5t-162 -209.5
t-211.5 -142.5t-249 12.5zM901 1904h5q116 -46 186 -251l-3 -20l-6 -6h-10q-55 73 -202 162q-83 -28 -221 -136h-14q17 100 223 231zM1431 2003q111 -39 111 -86q-146 -114 -444 -168l-11 16z" />
    <glyph glyph-name="uni1ED4" unicode="&#x1ed4;" horiz-adv-x="1011" 
d="M284 779q-136 -414 -71.5 -616t211.5 -207q151 -3 320.5 226.5t244.5 564.5q42 244 0.5 326.5t-116.5 70.5q-98 -17 -188.5 -142t-118.5 -210q-13 -39 -26 -30.5t-13 35.5q-5 115 42 236.5t131 196.5q118 102 243 93q26 -3 28 24q6 136 -72.5 141t-188.5 -81
q-117 -91 -238.5 -259.5t-187.5 -368.5zM222 -204q-132 60 -171.5 248.5t-5.5 392.5q34 203 114.5 403.5t169.5 337.5q104 161 232 263t242 127q113 24 191.5 -37t82.5 -226q0 -15 -7 -34q-4 -14 14 -60q65 -168 15 -418t-152 -469q-35 -74 -102.5 -188.5t-162 -209.5
t-211.5 -142.5t-249 12.5zM901 1904h5q116 -46 186 -251l-3 -20l-6 -6h-10q-55 73 -202 162q-83 -28 -221 -136h-14q17 100 223 231zM1093 1840q14 13 89.5 58t88.5 69q55 63 14.5 84.5t-82 19t-78 -14t-59.5 -17.5q-33 11 -18.5 31t57.5 45q24 13 73.5 26t101.5 17
q51 3 93.5 -7t52.5 -41q10 -33 -9 -66.5t-52 -64.5q-33 -32 -75 -65.5t-72 -57.5q-60 -49 -64.5 -85t-13.5 -48q-6 -9 -19.5 -2.5t-21.5 22.5q-9 16 -18.5 45t12.5 52z" />
    <glyph glyph-name="uni1ED6" unicode="&#x1ed6;" horiz-adv-x="1011" 
d="M284 779q-136 -414 -71.5 -616t211.5 -207q151 -3 320.5 226.5t244.5 564.5q42 244 0.5 326.5t-116.5 70.5q-98 -17 -188.5 -142t-118.5 -210q-13 -39 -26 -30.5t-13 35.5q-5 115 42 236.5t131 196.5q118 102 243 93q26 -3 28 24q6 136 -72.5 141t-188.5 -81
q-117 -91 -238.5 -259.5t-187.5 -368.5zM222 -204q-132 60 -171.5 248.5t-5.5 392.5q34 203 114.5 403.5t169.5 337.5q104 161 232 263t242 127q113 24 191.5 -37t82.5 -226q0 -15 -7 -34q-4 -14 14 -60q65 -168 15 -418t-152 -469q-35 -74 -102.5 -188.5t-162 -209.5
t-211.5 -142.5t-249 12.5zM901 1904h5q116 -46 186 -251l-3 -20l-6 -6h-10q-55 73 -202 162q-83 -28 -221 -136h-14q17 100 223 231zM968 2053q209 -35 264 -25l24 4q28 5 64 51l12 2l21 -13q19 -104 -156 -162l-42 -2q-275 45 -328 35q-28 -5 -104 -69l-20 8l-1 5
q55 139 186 162l12 2q43 8 68 2z" />
    <glyph glyph-name="uni1ED8" unicode="&#x1ed8;" horiz-adv-x="1011" 
d="M284 779q-136 -414 -71.5 -616t211.5 -207q151 -3 320.5 226.5t244.5 564.5q42 244 0.5 326.5t-116.5 70.5q-98 -17 -188.5 -142t-118.5 -210q-13 -39 -26 -30.5t-13 35.5q-5 115 42 236.5t131 196.5q118 102 243 93q26 -3 28 24q6 136 -72.5 141t-188.5 -81
q-117 -91 -238.5 -259.5t-187.5 -368.5zM222 -204q-132 60 -171.5 248.5t-5.5 392.5q34 203 114.5 403.5t169.5 337.5q104 161 232 263t242 127q113 24 191.5 -37t82.5 -226q0 -15 -7 -34q-4 -14 14 -60q65 -168 15 -418t-152 -469q-35 -74 -102.5 -188.5t-162 -209.5
t-211.5 -142.5t-249 12.5zM901 1904h5q116 -46 186 -251l-3 -20l-6 -6h-10q-55 73 -202 162q-83 -28 -221 -136h-14q17 100 223 231zM384 -314q43 -11 48 -53q4 -37 -19 -90q-23 -49 -55 -85q-35 -38 -59 -39q-29 -2 -39 42q-10 43 -2 104q8 63 39 96q33 36 87 25z" />
    <glyph glyph-name="Ugrave" unicode="&#xd9;" horiz-adv-x="998" 
d="M596 1541q54 0 78.5 -44t6.5 -84q-36 -75 -95.5 -218.5t-122.5 -311.5q-63 -169 -117.5 -343.5t-78.5 -312.5q-30 -174 6.5 -232t103.5 -41q66 18 146 92.5t137 168.5q76 123 130.5 247.5t100.5 259.5q102 302 194.5 566.5t104.5 275.5q20 19 37 2t14 -62
q-3 -36 -74.5 -305t-156.5 -578q-86 -310 -157.5 -563.5t-74.5 -259.5q-15 -28 -66 25q-52 54 -53 94q-2 18 6 55q3 19 9 41.5t13 49.5q5 18 0.5 28.5t-17.5 -13.5q-64 -113 -141.5 -191t-154.5 -73q-102 7 -157.5 72t-78 156t-19 193t20.5 183q46 221 171.5 478.5
t238.5 456.5q17 30 21.5 50t-46.5 -9q-48 -27 -107.5 -89t-119.5 -143q-60 -83 -117 -176.5t-94 -184.5q-33 -81 -52 -85t-26.5 33t-4 98t16.5 110q32 125 103.5 232t156.5 185q177 163 315 167zM804 2058h11q16 -9 107 -174q106 -152 108 -180l-5 -6h-11q-86 0 -307 231
l-11 39q0 53 108 90z" />
    <glyph glyph-name="Uacute" unicode="&#xda;" horiz-adv-x="998" 
d="M596 1541q54 0 78.5 -44t6.5 -84q-36 -75 -95.5 -218.5t-122.5 -311.5q-63 -169 -117.5 -343.5t-78.5 -312.5q-30 -174 6.5 -232t103.5 -41q66 18 146 92.5t137 168.5q76 123 130.5 247.5t100.5 259.5q102 302 194.5 566.5t104.5 275.5q20 19 37 2t14 -62
q-3 -36 -74.5 -305t-156.5 -578q-86 -310 -157.5 -563.5t-74.5 -259.5q-15 -28 -66 25q-52 54 -53 94q-2 18 6 55q3 19 9 41.5t13 49.5q5 18 0.5 28.5t-17.5 -13.5q-64 -113 -141.5 -191t-154.5 -73q-102 7 -157.5 72t-78 156t-19 193t20.5 183q46 221 171.5 478.5
t238.5 456.5q17 30 21.5 50t-46.5 -9q-48 -27 -107.5 -89t-119.5 -143q-60 -83 -117 -176.5t-94 -184.5q-33 -81 -52 -85t-26.5 33t-4 98t16.5 110q32 125 103.5 232t156.5 185q177 163 315 167zM1141 1883q111 -39 111 -86q-146 -114 -444 -168l-11 16z" />
    <glyph glyph-name="uni1EE6" unicode="&#x1ee6;" horiz-adv-x="998" 
d="M596 1541q54 0 78.5 -44t6.5 -84q-36 -75 -95.5 -218.5t-122.5 -311.5q-63 -169 -117.5 -343.5t-78.5 -312.5q-30 -174 6.5 -232t103.5 -41q66 18 146 92.5t137 168.5q76 123 130.5 247.5t100.5 259.5q102 302 194.5 566.5t104.5 275.5q20 19 37 2t14 -62
q-3 -36 -74.5 -305t-156.5 -578q-86 -310 -157.5 -563.5t-74.5 -259.5q-15 -28 -66 25q-52 54 -53 94q-2 18 6 55q3 19 9 41.5t13 49.5q5 18 0.5 28.5t-17.5 -13.5q-64 -113 -141.5 -191t-154.5 -73q-102 7 -157.5 72t-78 156t-19 193t20.5 183q46 221 171.5 478.5
t238.5 456.5q17 30 21.5 50t-46.5 -9q-48 -27 -107.5 -89t-119.5 -143q-60 -83 -117 -176.5t-94 -184.5q-33 -81 -52 -85t-26.5 33t-4 98t16.5 110q32 125 103.5 232t156.5 185q177 163 315 167zM937 1726q14 13 89.5 58t88.5 69q55 63 14.5 84.5t-82 19t-78 -14
t-59.5 -17.5q-33 11 -18.5 31t57.5 45q24 13 73.5 26t101.5 17q51 3 93.5 -7t52.5 -41q10 -33 -9 -66.5t-52 -64.5q-33 -32 -75 -65.5t-72 -57.5q-60 -49 -64.5 -85t-13.5 -48q-6 -9 -19.5 -2.5t-21.5 22.5q-9 16 -18.5 45t12.5 52z" />
    <glyph glyph-name="Utilde" unicode="&#x168;" horiz-adv-x="998" 
d="M596 1541q54 0 78.5 -44t6.5 -84q-36 -75 -95.5 -218.5t-122.5 -311.5q-63 -169 -117.5 -343.5t-78.5 -312.5q-30 -174 6.5 -232t103.5 -41q66 18 146 92.5t137 168.5q76 123 130.5 247.5t100.5 259.5q102 302 194.5 566.5t104.5 275.5q20 19 37 2t14 -62
q-3 -36 -74.5 -305t-156.5 -578q-86 -310 -157.5 -563.5t-74.5 -259.5q-15 -28 -66 25q-52 54 -53 94q-2 18 6 55q3 19 9 41.5t13 49.5q5 18 0.5 28.5t-17.5 -13.5q-64 -113 -141.5 -191t-154.5 -73q-102 7 -157.5 72t-78 156t-19 193t20.5 183q46 221 171.5 478.5
t238.5 456.5q17 30 21.5 50t-46.5 -9q-48 -27 -107.5 -89t-119.5 -143q-60 -83 -117 -176.5t-94 -184.5q-33 -81 -52 -85t-26.5 33t-4 98t16.5 110q32 125 103.5 232t156.5 185q177 163 315 167zM912 1841q209 -35 264 -25l24 4q28 5 64 51l12 2l21 -13q19 -104 -156 -162
l-42 -2q-275 45 -328 35q-28 -5 -104 -69l-20 8l-1 5q55 139 186 162l12 2q43 8 68 2z" />
    <glyph glyph-name="uni1EE4" unicode="&#x1ee4;" horiz-adv-x="998" 
d="M596 1541q54 0 78.5 -44t6.5 -84q-36 -75 -95.5 -218.5t-122.5 -311.5q-63 -169 -117.5 -343.5t-78.5 -312.5q-30 -174 6.5 -232t103.5 -41q66 18 146 92.5t137 168.5q76 123 130.5 247.5t100.5 259.5q102 302 194.5 566.5t104.5 275.5q20 19 37 2t14 -62
q-3 -36 -74.5 -305t-156.5 -578q-86 -310 -157.5 -563.5t-74.5 -259.5q-15 -28 -66 25q-52 54 -53 94q-2 18 6 55q3 19 9 41.5t13 49.5q5 18 0.5 28.5t-17.5 -13.5q-64 -113 -141.5 -191t-154.5 -73q-102 7 -157.5 72t-78 156t-19 193t20.5 183q46 221 171.5 478.5
t238.5 456.5q17 30 21.5 50t-46.5 -9q-48 -27 -107.5 -89t-119.5 -143q-60 -83 -117 -176.5t-94 -184.5q-33 -81 -52 -85t-26.5 33t-4 98t16.5 110q32 125 103.5 232t156.5 185q177 163 315 167zM398 -314q43 -11 48 -53q4 -37 -19 -90q-23 -49 -55 -85q-35 -38 -59 -39
q-29 -2 -39 42q-10 43 -2 104q8 63 39 96q33 36 87 25z" />
    <glyph glyph-name="Uhorn" unicode="&#x1af;" horiz-adv-x="998" 
d="M596 1541q54 0 78.5 -44t6.5 -84q-36 -75 -95.5 -218.5t-122.5 -311.5q-63 -169 -117.5 -343.5t-78.5 -312.5q-30 -174 6.5 -232t103.5 -41q66 18 146 92.5t137 168.5q76 123 130.5 247.5t100.5 259.5q102 302 194.5 566.5t104.5 275.5q20 19 37 2t14 -62
q-3 -36 -74.5 -305t-156.5 -578q-86 -310 -157.5 -563.5t-74.5 -259.5q-15 -28 -66 25q-52 54 -53 94q-2 18 6 55q3 19 9 41.5t13 49.5q5 18 0.5 28.5t-17.5 -13.5q-64 -113 -141.5 -191t-154.5 -73q-102 7 -157.5 72t-78 156t-19 193t20.5 183q46 221 171.5 478.5
t238.5 456.5q17 30 21.5 50t-46.5 -9q-48 -27 -107.5 -89t-119.5 -143q-60 -83 -117 -176.5t-94 -184.5q-33 -81 -52 -85t-26.5 33t-4 98t16.5 110q32 125 103.5 232t156.5 185q177 163 315 167zM1414 1683q42 -10 49 -53q4 -38 -19 -89q-20 -44 -55 -85
q-16 -18 -98.5 -111.5t-94.5 -94.5q-28 -1 -38 42q-4 21 61.5 130.5t69.5 139.5q8 63 39 96q33 36 86 25z" />
    <glyph glyph-name="uni1EEA" unicode="&#x1eea;" horiz-adv-x="998" 
d="M804 2058h11q16 -9 107 -174q106 -152 108 -180l-5 -6h-11q-86 0 -307 231l-11 39q0 53 108 90zM1181 1253q-7 -25 -14 -54q-72 -269 -157 -578q-86 -310 -157.5 -563.5t-74.5 -259.5q-15 -28 -66 25q-52 54 -53 94q-2 18 6 55q3 19 9 41.5t13 49.5q5 18 0.5 28.5
t-17.5 -13.5q-64 -113 -141.5 -191t-154.5 -73q-102 7 -157.5 72t-78 156t-19 193t20.5 183q46 221 171.5 478.5t238.5 456.5q17 30 21.5 50t-46.5 -9q-48 -27 -107.5 -89t-119.5 -143q-60 -83 -117 -176.5t-94 -184.5q-33 -81 -52 -85t-26.5 33t-4 98t16.5 110
q32 125 103.5 232t156.5 185q177 163 315 167q54 0 78.5 -44t6.5 -84q-36 -75 -95.5 -218.5t-122.5 -311.5q-63 -169 -117.5 -343.5t-78.5 -312.5q-30 -174 6.5 -232t103.5 -41q66 18 146 92.5t137 168.5q76 123 130.5 247.5t100.5 259.5q102 302 194.5 566.5t104.5 275.5
q20 19 37 2t14 -62q-1 -15 -14 -69q58 99 62 127q8 63 39 96q33 36 86 25q42 -10 49 -53q4 -38 -19 -89q-20 -44 -55 -85q-16 -18 -98.5 -111.5t-94.5 -94.5q-8 0 -15 3z" />
    <glyph glyph-name="uni1EE8" unicode="&#x1ee8;" horiz-adv-x="998" 
d="M1141 1883q111 -39 111 -86q-146 -114 -444 -168l-11 16zM1181 1253q-7 -25 -14 -54q-72 -269 -157 -578q-86 -310 -157.5 -563.5t-74.5 -259.5q-15 -28 -66 25q-52 54 -53 94q-2 18 6 55q3 19 9 41.5t13 49.5q5 18 0.5 28.5t-17.5 -13.5q-64 -113 -141.5 -191
t-154.5 -73q-102 7 -157.5 72t-78 156t-19 193t20.5 183q46 221 171.5 478.5t238.5 456.5q17 30 21.5 50t-46.5 -9q-48 -27 -107.5 -89t-119.5 -143q-60 -83 -117 -176.5t-94 -184.5q-33 -81 -52 -85t-26.5 33t-4 98t16.5 110q32 125 103.5 232t156.5 185q177 163 315 167
q54 0 78.5 -44t6.5 -84q-36 -75 -95.5 -218.5t-122.5 -311.5q-63 -169 -117.5 -343.5t-78.5 -312.5q-30 -174 6.5 -232t103.5 -41q66 18 146 92.5t137 168.5q76 123 130.5 247.5t100.5 259.5q102 302 194.5 566.5t104.5 275.5q20 19 37 2t14 -62q-1 -15 -14 -69
q58 99 62 127q8 63 39 96q33 36 86 25q42 -10 49 -53q4 -38 -19 -89q-20 -44 -55 -85q-16 -18 -98.5 -111.5t-94.5 -94.5q-8 0 -15 3z" />
    <glyph glyph-name="uni1EEC" unicode="&#x1eec;" horiz-adv-x="998" 
d="M937 1726q14 13 89.5 58t88.5 69q55 63 14.5 84.5t-82 19t-78 -14t-59.5 -17.5q-33 11 -18.5 31t57.5 45q24 13 73.5 26t101.5 17q51 3 93.5 -7t52.5 -41q10 -33 -9 -66.5t-52 -64.5q-33 -32 -75 -65.5t-72 -57.5q-60 -49 -64.5 -85t-13.5 -48q-6 -9 -19.5 -2.5
t-21.5 22.5q-9 16 -18.5 45t12.5 52zM1181 1253q-7 -25 -14 -54q-72 -269 -157 -578q-86 -310 -157.5 -563.5t-74.5 -259.5q-15 -28 -66 25q-52 54 -53 94q-2 18 6 55q3 19 9 41.5t13 49.5q5 18 0.5 28.5t-17.5 -13.5q-64 -113 -141.5 -191t-154.5 -73q-102 7 -157.5 72
t-78 156t-19 193t20.5 183q46 221 171.5 478.5t238.5 456.5q17 30 21.5 50t-46.5 -9q-48 -27 -107.5 -89t-119.5 -143q-60 -83 -117 -176.5t-94 -184.5q-33 -81 -52 -85t-26.5 33t-4 98t16.5 110q32 125 103.5 232t156.5 185q177 163 315 167q54 0 78.5 -44t6.5 -84
q-36 -75 -95.5 -218.5t-122.5 -311.5q-63 -169 -117.5 -343.5t-78.5 -312.5q-30 -174 6.5 -232t103.5 -41q66 18 146 92.5t137 168.5q76 123 130.5 247.5t100.5 259.5q102 302 194.5 566.5t104.5 275.5q20 19 37 2t14 -62q-1 -15 -14 -69q58 99 62 127q8 63 39 96
q33 36 86 25q42 -10 49 -53q4 -38 -19 -89q-20 -44 -55 -85q-16 -18 -98.5 -111.5t-94.5 -94.5q-8 0 -15 3z" />
    <glyph glyph-name="uni1EEE" unicode="&#x1eee;" horiz-adv-x="998" 
d="M912 1841q209 -35 264 -25l24 4q28 5 64 51l12 2l21 -13q19 -104 -156 -162l-42 -2q-275 45 -328 35q-28 -5 -104 -69l-20 8l-1 5q55 139 186 162l12 2q43 8 68 2zM1181 1253q-7 -25 -14 -54q-72 -269 -157 -578q-86 -310 -157.5 -563.5t-74.5 -259.5q-15 -28 -66 25
q-52 54 -53 94q-2 18 6 55q3 19 9 41.5t13 49.5q5 18 0.5 28.5t-17.5 -13.5q-64 -113 -141.5 -191t-154.5 -73q-102 7 -157.5 72t-78 156t-19 193t20.5 183q46 221 171.5 478.5t238.5 456.5q17 30 21.5 50t-46.5 -9q-48 -27 -107.5 -89t-119.5 -143q-60 -83 -117 -176.5
t-94 -184.5q-33 -81 -52 -85t-26.5 33t-4 98t16.5 110q32 125 103.5 232t156.5 185q177 163 315 167q54 0 78.5 -44t6.5 -84q-36 -75 -95.5 -218.5t-122.5 -311.5q-63 -169 -117.5 -343.5t-78.5 -312.5q-30 -174 6.5 -232t103.5 -41q66 18 146 92.5t137 168.5
q76 123 130.5 247.5t100.5 259.5q102 302 194.5 566.5t104.5 275.5q20 19 37 2t14 -62q-1 -15 -14 -69q58 99 62 127q8 63 39 96q33 36 86 25q42 -10 49 -53q4 -38 -19 -89q-20 -44 -55 -85q-16 -18 -98.5 -111.5t-94.5 -94.5q-8 0 -15 3z" />
    <glyph glyph-name="uni1EF0" unicode="&#x1ef0;" horiz-adv-x="998" 
d="M398 -314q43 -11 48 -53q4 -37 -19 -90q-23 -49 -55 -85q-35 -38 -59 -39q-29 -2 -39 42q-10 43 -2 104q8 63 39 96q33 36 87 25zM1181 1253q-7 -25 -14 -54q-72 -269 -157 -578q-86 -310 -157.5 -563.5t-74.5 -259.5q-15 -28 -66 25q-52 54 -53 94q-2 18 6 55
q3 19 9 41.5t13 49.5q5 18 0.5 28.5t-17.5 -13.5q-64 -113 -141.5 -191t-154.5 -73q-102 7 -157.5 72t-78 156t-19 193t20.5 183q46 221 171.5 478.5t238.5 456.5q17 30 21.5 50t-46.5 -9q-48 -27 -107.5 -89t-119.5 -143q-60 -83 -117 -176.5t-94 -184.5q-33 -81 -52 -85
t-26.5 33t-4 98t16.5 110q32 125 103.5 232t156.5 185q177 163 315 167q54 0 78.5 -44t6.5 -84q-36 -75 -95.5 -218.5t-122.5 -311.5q-63 -169 -117.5 -343.5t-78.5 -312.5q-30 -174 6.5 -232t103.5 -41q66 18 146 92.5t137 168.5q76 123 130.5 247.5t100.5 259.5
q102 302 194.5 566.5t104.5 275.5q20 19 37 2t14 -62q-1 -15 -14 -69q58 99 62 127q8 63 39 96q33 36 86 25q42 -10 49 -53q4 -38 -19 -89q-20 -44 -55 -85q-16 -18 -98.5 -111.5t-94.5 -94.5q-8 0 -15 3z" />
    <glyph glyph-name="Ohorn" unicode="&#x1a0;" horiz-adv-x="1011" 
d="M284 779q-136 -414 -71.5 -616t211.5 -207q151 -3 320.5 226.5t244.5 564.5q42 244 0.5 326.5t-116.5 70.5q-98 -17 -188.5 -142t-118.5 -210q-13 -39 -26 -30.5t-13 35.5q-5 115 42 236.5t131 196.5q118 102 243 93q26 -3 28 24q6 136 -72.5 141t-188.5 -81
q-117 -91 -238.5 -259.5t-187.5 -368.5zM1071 1252q3 -16 13 -41q65 -168 15 -418t-152 -469q-35 -74 -102.5 -188.5t-162 -209.5t-211.5 -142.5t-249 12.5t-171.5 248.5t-5.5 392.5q34 203 114.5 403.5t169.5 337.5q104 161 232 263t242 127q113 24 192 -37q63 -49 78 -167
q13 25 34 59q65 109 69 139q8 63 39 96q33 36 86 25q42 -10 49 -53q4 -38 -19 -89q-20 -44 -55 -85q-16 -18 -98.5 -111.5t-94.5 -94.5q-7 0 -12 2z" />
    <glyph glyph-name="uni1EDC" unicode="&#x1edc;" horiz-adv-x="1011" 
d="M284 779q-136 -414 -71.5 -616t211.5 -207q151 -3 320.5 226.5t244.5 564.5q42 244 0.5 326.5t-116.5 70.5q-98 -17 -188.5 -142t-118.5 -210q-13 -39 -26 -30.5t-13 35.5q-5 115 42 236.5t131 196.5q118 102 243 93q26 -3 28 24q6 136 -72.5 141t-188.5 -81
q-117 -91 -238.5 -259.5t-187.5 -368.5zM613 2058h11q16 -9 107 -174q106 -152 108 -180l-5 -6h-11q-86 0 -307 231l-11 39q0 53 108 90zM1071 1252q3 -16 13 -41q65 -168 15 -418t-152 -469q-35 -74 -102.5 -188.5t-162 -209.5t-211.5 -142.5t-249 12.5t-171.5 248.5
t-5.5 392.5q34 203 114.5 403.5t169.5 337.5q104 161 232 263t242 127q113 24 192 -37q63 -49 78 -167q13 25 34 59q65 109 69 139q8 63 39 96q33 36 86 25q42 -10 49 -53q4 -38 -19 -89q-20 -44 -55 -85q-16 -18 -98.5 -111.5t-94.5 -94.5q-7 0 -12 2z" />
    <glyph glyph-name="uni1EDA" unicode="&#x1eda;" horiz-adv-x="1011" 
d="M284 779q-136 -414 -71.5 -616t211.5 -207q151 -3 320.5 226.5t244.5 564.5q42 244 0.5 326.5t-116.5 70.5q-98 -17 -188.5 -142t-118.5 -210q-13 -39 -26 -30.5t-13 35.5q-5 115 42 236.5t131 196.5q118 102 243 93q26 -3 28 24q6 136 -72.5 141t-188.5 -81
q-117 -91 -238.5 -259.5t-187.5 -368.5zM1092 1883q111 -39 111 -86q-146 -114 -444 -168l-11 16zM1071 1252q3 -16 13 -41q65 -168 15 -418t-152 -469q-35 -74 -102.5 -188.5t-162 -209.5t-211.5 -142.5t-249 12.5t-171.5 248.5t-5.5 392.5q34 203 114.5 403.5t169.5 337.5
q104 161 232 263t242 127q113 24 192 -37q63 -49 78 -167q13 25 34 59q65 109 69 139q8 63 39 96q33 36 86 25q42 -10 49 -53q4 -38 -19 -89q-20 -44 -55 -85q-16 -18 -98.5 -111.5t-94.5 -94.5q-7 0 -12 2z" />
    <glyph glyph-name="uni1EDE" unicode="&#x1ede;" horiz-adv-x="1011" 
d="M284 779q-136 -414 -71.5 -616t211.5 -207q151 -3 320.5 226.5t244.5 564.5q42 244 0.5 326.5t-116.5 70.5q-98 -17 -188.5 -142t-118.5 -210q-13 -39 -26 -30.5t-13 35.5q-5 115 42 236.5t131 196.5q118 102 243 93q26 -3 28 24q6 136 -72.5 141t-188.5 -81
q-117 -91 -238.5 -259.5t-187.5 -368.5zM937 1726q14 13 89.5 58t88.5 69q55 63 14.5 84.5t-82 19t-78 -14t-59.5 -17.5q-33 11 -18.5 31t57.5 45q24 13 73.5 26t101.5 17q51 3 93.5 -7t52.5 -41q10 -33 -9 -66.5t-52 -64.5q-33 -32 -75 -65.5t-72 -57.5q-60 -49 -64.5 -85
t-13.5 -48q-6 -9 -19.5 -2.5t-21.5 22.5q-9 16 -18.5 45t12.5 52zM1071 1252q3 -16 13 -41q65 -168 15 -418t-152 -469q-35 -74 -102.5 -188.5t-162 -209.5t-211.5 -142.5t-249 12.5t-171.5 248.5t-5.5 392.5q34 203 114.5 403.5t169.5 337.5q104 161 232 263t242 127
q113 24 192 -37q63 -49 78 -167q13 25 34 59q65 109 69 139q8 63 39 96q33 36 86 25q42 -10 49 -53q4 -38 -19 -89q-20 -44 -55 -85q-16 -18 -98.5 -111.5t-94.5 -94.5q-7 0 -12 2z" />
    <glyph glyph-name="uni1EE0" unicode="&#x1ee0;" horiz-adv-x="1011" 
d="M284 779q-136 -414 -71.5 -616t211.5 -207q151 -3 320.5 226.5t244.5 564.5q42 244 0.5 326.5t-116.5 70.5q-98 -17 -188.5 -142t-118.5 -210q-13 -39 -26 -30.5t-13 35.5q-5 115 42 236.5t131 196.5q118 102 243 93q26 -3 28 24q6 136 -72.5 141t-188.5 -81
q-117 -91 -238.5 -259.5t-187.5 -368.5zM912 1841q209 -35 264 -25l24 4q28 5 64 51l12 2l21 -13q19 -104 -156 -162l-42 -2q-275 45 -328 35q-28 -5 -104 -69l-20 8l-1 5q55 139 186 162l12 2q43 8 68 2zM1071 1252q3 -16 13 -41q65 -168 15 -418t-152 -469
q-35 -74 -102.5 -188.5t-162 -209.5t-211.5 -142.5t-249 12.5t-171.5 248.5t-5.5 392.5q34 203 114.5 403.5t169.5 337.5q104 161 232 263t242 127q113 24 192 -37q63 -49 78 -167q13 25 34 59q65 109 69 139q8 63 39 96q33 36 86 25q42 -10 49 -53q4 -38 -19 -89
q-20 -44 -55 -85q-16 -18 -98.5 -111.5t-94.5 -94.5q-7 0 -12 2z" />
    <glyph glyph-name="uni1EE2" unicode="&#x1ee2;" horiz-adv-x="1011" 
d="M284 779q-136 -414 -71.5 -616t211.5 -207q151 -3 320.5 226.5t244.5 564.5q42 244 0.5 326.5t-116.5 70.5q-98 -17 -188.5 -142t-118.5 -210q-13 -39 -26 -30.5t-13 35.5q-5 115 42 236.5t131 196.5q118 102 243 93q26 -3 28 24q6 136 -72.5 141t-188.5 -81
q-117 -91 -238.5 -259.5t-187.5 -368.5zM384 -314q43 -11 48 -53q4 -37 -19 -90q-23 -49 -55 -85q-35 -38 -59 -39q-29 -2 -39 42q-10 43 -2 104q8 63 39 96q33 36 87 25zM1072 1252q3 -16 13 -41q65 -168 15 -418t-152 -469q-35 -74 -102.5 -188.5t-162 -209.5
t-211.5 -142.5t-249 12.5t-171.5 248.5t-5.5 392.5q34 203 114.5 403.5t169.5 337.5q104 161 232 263t242 127q113 24 192 -37q63 -49 78 -167q13 25 34 59q65 109 69 139q8 63 39 96q33 36 86 25q42 -10 49 -53q4 -38 -19 -89q-20 -44 -55 -85q-16 -18 -98.5 -111.5
t-94.5 -94.5q-7 0 -12 2z" />
    <glyph glyph-name="Ygrave" unicode="&#x1ef2;" horiz-adv-x="1209" 
d="M1165 875q285 412 393.5 569t117.5 165q24 19 54.5 -1.5t3.5 -55.5q-56 -75 -154.5 -238t-191.5 -339t-237 -503q-75 -167 -141.5 -329.5t-116.5 -308.5t-77 -266.5t-31 -202.5q-4 -64 -29 -57t-54 43q-30 37 -45.5 68.5t-23.5 62.5q-29 67 55 300q53 130 155 352
t212 446q5 11 0 13t-12 -3q-43 -47 -175.5 -206.5t-196.5 -212.5q-62 -52 -125.5 -82.5t-113.5 -3.5q-89 47 -72 193t107 388q185 483 142 565q-38 99 -207.5 94t-368.5 -54q-56 -15 -33.5 40t120.5 105q99 49 218 71t201 22q173 3 219 -96t9 -214q-27 -80 -61.5 -169.5
t-98 -272t-87 -313.5t2.5 -192q14 -36 78.5 -5.5t223 201.5t340.5 427zM804 2058h11q16 -9 107 -174q106 -152 108 -180l-5 -6h-11q-86 0 -307 231l-11 39q0 53 108 90z" />
    <glyph glyph-name="Yacute" unicode="&#xdd;" horiz-adv-x="1209" 
d="M1165 875q285 412 393.5 569t117.5 165q24 19 54.5 -1.5t3.5 -55.5q-56 -75 -154.5 -238t-191.5 -339t-237 -503q-75 -167 -141.5 -329.5t-116.5 -308.5t-77 -266.5t-31 -202.5q-4 -64 -29 -57t-54 43q-30 37 -45.5 68.5t-23.5 62.5q-29 67 55 300q53 130 155 352
t212 446q5 11 0 13t-12 -3q-43 -47 -175.5 -206.5t-196.5 -212.5q-62 -52 -125.5 -82.5t-113.5 -3.5q-89 47 -72 193t107 388q185 483 142 565q-38 99 -207.5 94t-368.5 -54q-56 -15 -33.5 40t120.5 105q99 49 218 71t201 22q173 3 219 -96t9 -214q-27 -80 -61.5 -169.5
t-98 -272t-87 -313.5t2.5 -192q14 -36 78.5 -5.5t223 201.5t340.5 427zM1460 1883q111 -39 111 -86q-146 -114 -444 -168l-11 16z" />
    <glyph glyph-name="uni1EF6" unicode="&#x1ef6;" horiz-adv-x="1209" 
d="M1165 875q285 412 393.5 569t117.5 165q24 19 54.5 -1.5t3.5 -55.5q-56 -75 -154.5 -238t-191.5 -339t-237 -503q-75 -167 -141.5 -329.5t-116.5 -308.5t-77 -266.5t-31 -202.5q-4 -64 -29 -57t-54 43q-30 37 -45.5 68.5t-23.5 62.5q-29 67 55 300q53 130 155 352
t212 446q5 11 0 13t-12 -3q-43 -47 -175.5 -206.5t-196.5 -212.5q-62 -52 -125.5 -82.5t-113.5 -3.5q-89 47 -72 193t107 388q185 483 142 565q-38 99 -207.5 94t-368.5 -54q-56 -15 -33.5 40t120.5 105q99 49 218 71t201 22q173 3 219 -96t9 -214q-27 -80 -61.5 -169.5
t-98 -272t-87 -313.5t2.5 -192q14 -36 78.5 -5.5t223 201.5t340.5 427zM1086 1726q14 13 89.5 58t88.5 69q55 63 14.5 84.5t-82 19t-78 -14t-59.5 -17.5q-33 11 -18.5 31t57.5 45q24 13 73.5 26t101.5 17q51 3 93.5 -7t52.5 -41q10 -33 -9 -66.5t-52 -64.5
q-33 -32 -75 -65.5t-72 -57.5q-60 -49 -64.5 -85t-13.5 -48q-6 -9 -19.5 -2.5t-21.5 22.5q-9 16 -18.5 45t12.5 52z" />
    <glyph glyph-name="uni1EF8" unicode="&#x1ef8;" horiz-adv-x="1209" 
d="M1165 875q285 412 393.5 569t117.5 165q24 19 54.5 -1.5t3.5 -55.5q-56 -75 -154.5 -238t-191.5 -339t-237 -503q-75 -167 -141.5 -329.5t-116.5 -308.5t-77 -266.5t-31 -202.5q-4 -64 -29 -57t-54 43q-30 37 -45.5 68.5t-23.5 62.5q-29 67 55 300q53 130 155 352
t212 446q5 11 0 13t-12 -3q-43 -47 -175.5 -206.5t-196.5 -212.5q-62 -52 -125.5 -82.5t-113.5 -3.5q-89 47 -72 193t107 388q185 483 142 565q-38 99 -207.5 94t-368.5 -54q-56 -15 -33.5 40t120.5 105q99 49 218 71t201 22q173 3 219 -96t9 -214q-27 -80 -61.5 -169.5
t-98 -272t-87 -313.5t2.5 -192q14 -36 78.5 -5.5t223 201.5t340.5 427zM1160 1841q209 -35 264 -25l24 4q28 5 64 51l12 2l21 -13q19 -104 -156 -162l-42 -2q-275 45 -328 35q-28 -5 -104 -69l-20 8l-1 5q55 139 186 162l12 2q43 8 68 2z" />
    <glyph glyph-name="uni1EF4" unicode="&#x1ef4;" horiz-adv-x="1209" 
d="M1165 875q285 412 393.5 569t117.5 165q24 19 54.5 -1.5t3.5 -55.5q-56 -75 -154.5 -238t-191.5 -339t-237 -503q-75 -167 -141.5 -329.5t-116.5 -308.5t-77 -266.5t-31 -202.5q-4 -64 -29 -57t-54 43q-30 37 -45.5 68.5t-23.5 62.5q-29 67 55 300q53 130 155 352
t212 446q5 11 0 13t-12 -3q-43 -47 -175.5 -206.5t-196.5 -212.5q-62 -52 -125.5 -82.5t-113.5 -3.5q-89 47 -72 193t107 388q185 483 142 565q-38 99 -207.5 94t-368.5 -54q-56 -15 -33.5 40t120.5 105q99 49 218 71t201 22q173 3 219 -96t9 -214q-27 -80 -61.5 -169.5
t-98 -272t-87 -313.5t2.5 -192q14 -36 78.5 -5.5t223 201.5t340.5 427zM1042 -314q43 -11 48 -53q4 -37 -19 -90q-23 -49 -55 -85q-35 -38 -59 -39q-29 -2 -39 42q-10 43 -2 104q8 63 39 96q33 36 87 25z" />
    <glyph glyph-name="agrave" unicode="&#xe0;" horiz-adv-x="569" 
d="M340 793q-55 -68 -96 -177t-60 -203q-20 -96 -14.5 -149.5t44.5 -9.5q31 34 64.5 80.5t65.5 95.5q68 108 103 181q91 193 43 252q-49 55 -150 -70zM545 739q-3 -16 14 -25q19 -13 23 -18q8 -15 -7 -46q-19 -45 -41 -144q-25 -114 -29 -199q-1 -14 -0.5 -21.5t18.5 13.5
q22 27 79 109q52 76 89 138t54 92q10 15 21 0.5t-15 -66.5q-23 -39 -59.5 -108.5t-111.5 -186.5q-37 -61 -68.5 -105t-56.5 -66q-23 -21 -55 26.5t-37 120.5q-4 34 3 94q2 38 -15 16q-18 -24 -42.5 -71.5t-50.5 -92.5q-27 -45 -52 -75t-44 -18q-68 41 -99 108
q-26 55 -22 112q6 120 49.5 228t105.5 191q132 177 251 187q123 10 98 -193zM385 1265h10q15 -7 101 -137q100 -119 102 -141l-5 -4h-10q-81 0 -290 181l-10 31q0 41 102 70z" />
    <glyph glyph-name="aacute" unicode="&#xe1;" horiz-adv-x="569" 
d="M340 793q-55 -68 -96 -177t-60 -203q-20 -96 -14.5 -149.5t44.5 -9.5q31 34 64.5 80.5t65.5 95.5q68 108 103 181q91 193 43 252q-49 55 -150 -70zM545 739q-3 -16 14 -25q19 -13 23 -18q8 -15 -7 -46q-19 -45 -41 -144q-25 -114 -29 -199q-1 -14 -0.5 -21.5t18.5 13.5
q22 27 79 109q52 76 89 138t54 92q10 15 21 0.5t-15 -66.5q-23 -39 -59.5 -108.5t-111.5 -186.5q-37 -61 -68.5 -105t-56.5 -66q-23 -21 -55 26.5t-37 120.5q-4 34 3 94q2 38 -15 16q-18 -24 -42.5 -71.5t-50.5 -92.5q-27 -45 -52 -75t-44 -18q-68 41 -99 108
q-26 55 -22 112q6 120 49.5 228t105.5 191q132 177 251 187q123 10 98 -193zM646 1202q104 -36 104 -81q-137 -107 -416 -157l-10 15z" />
    <glyph glyph-name="uni1EA3" unicode="&#x1ea3;" horiz-adv-x="569" 
d="M340 793q-55 -68 -96 -177t-60 -203q-20 -96 -14.5 -149.5t44.5 -9.5q31 34 64.5 80.5t65.5 95.5q68 108 103 181q91 193 43 252q-49 55 -150 -70zM545 739q-3 -16 14 -25q19 -13 23 -18q8 -15 -7 -46q-19 -45 -41 -144q-25 -114 -29 -199q-1 -14 -0.5 -21.5t18.5 13.5
q22 27 79 109q52 76 89 138t54 92q10 15 21 0.5t-15 -66.5q-23 -39 -59.5 -108.5t-111.5 -186.5q-37 -61 -68.5 -105t-56.5 -66q-23 -21 -55 26.5t-37 120.5q-4 34 3 94q2 38 -15 16q-18 -24 -42.5 -71.5t-50.5 -92.5q-27 -45 -52 -75t-44 -18q-68 41 -99 108
q-26 55 -22 112q6 120 49.5 228t105.5 191q132 177 251 187q123 10 98 -193zM526 1078q11 11 72.5 50t71.5 59q45 55 12 73t-66.5 16t-63 -12t-48.5 -15q-27 10 -15.5 27t46.5 38q20 11 60.5 22t82.5 15q42 3 76 -5.5t42 -35.5q9 -29 -6.5 -57.5t-42.5 -55.5t-61 -55.5
t-59 -49.5q-49 -42 -52.5 -72.5t-10.5 -41.5q-5 -8 -16 -2t-17 20q-8 13 -15.5 38t10.5 44z" />
    <glyph glyph-name="atilde" unicode="&#xe3;" horiz-adv-x="569" 
d="M340 793q-55 -68 -96 -177t-60 -203q-20 -96 -14.5 -149.5t44.5 -9.5q31 34 64.5 80.5t65.5 95.5q68 108 103 181q91 193 43 252q-49 55 -150 -70zM545 739q-3 -16 14 -25q19 -13 23 -18q8 -15 -7 -46q-19 -45 -41 -144q-25 -114 -29 -199q-1 -14 -0.5 -21.5t18.5 13.5
q22 27 79 109q52 76 89 138t54 92q10 15 21 0.5t-15 -66.5q-23 -39 -59.5 -108.5t-111.5 -186.5q-37 -61 -68.5 -105t-56.5 -66q-23 -21 -55 26.5t-37 120.5q-4 34 3 94q2 38 -15 16q-18 -24 -42.5 -71.5t-50.5 -92.5q-27 -45 -52 -75t-44 -18q-68 41 -99 108
q-26 55 -22 112q6 120 49.5 228t105.5 191q132 177 251 187q123 10 98 -193zM472 1161q169 -31 213 -22l20 4q23 4 52 44l10 2l17 -11q15 -92 -126 -142l-35 -2q-222 39 -265 31q-23 -5 -84 -61l-16 7l-1 5q44 121 151 142l9 2q35 6 55 1z" />
    <glyph glyph-name="uni1EA1" unicode="&#x1ea1;" horiz-adv-x="569" 
d="M340 793q-55 -68 -96 -177t-60 -203q-20 -96 -14.5 -149.5t44.5 -9.5q31 34 64.5 80.5t65.5 95.5q68 108 103 181q91 193 43 252q-49 55 -150 -70zM545 739q-3 -16 14 -25q19 -13 23 -18q8 -15 -7 -46q-19 -45 -41 -144q-25 -114 -29 -199q-1 -14 -0.5 -21.5t18.5 13.5
q22 27 79 109q52 76 89 138t54 92q10 15 21 0.5t-15 -66.5q-23 -39 -59.5 -108.5t-111.5 -186.5q-37 -61 -68.5 -105t-56.5 -66q-23 -21 -55 26.5t-37 120.5q-4 34 3 94q2 38 -15 16q-18 -24 -42.5 -71.5t-50.5 -92.5q-27 -45 -52 -75t-44 -18q-68 41 -99 108
q-26 55 -22 112q6 120 49.5 228t105.5 191q132 177 251 187q123 10 98 -193zM328 76q36 -8 40 -37q3 -25 -16 -61q-19 -34 -46 -58q-29 -26 -49 -27q-25 -2 -33 29q-8 29 -2 71q7 43 33 66q28 24 73 17z" />
    <glyph glyph-name="acircumflex" unicode="&#xe2;" horiz-adv-x="569" 
d="M340 793q-55 -68 -96 -177t-60 -203q-20 -96 -14.5 -149.5t44.5 -9.5q31 34 64.5 80.5t65.5 95.5q68 108 103 181q91 193 43 252q-49 55 -150 -70zM545 739q-3 -16 14 -25q19 -13 23 -18q8 -15 -7 -46q-19 -45 -41 -144q-25 -114 -29 -199q-1 -14 -0.5 -21.5t18.5 13.5
q22 27 79 109q52 76 89 138t54 92q10 15 21 0.5t-15 -66.5q-23 -39 -59.5 -108.5t-111.5 -186.5q-37 -61 -68.5 -105t-56.5 -66q-23 -21 -55 26.5t-37 120.5q-4 34 3 94q2 38 -15 16q-18 -24 -42.5 -71.5t-50.5 -92.5q-27 -45 -52 -75t-44 -18q-68 41 -99 108
q-26 55 -22 112q6 120 49.5 228t105.5 191q132 177 251 187q123 10 98 -193zM535 1189h4q101 -41 161 -226l-3 -17l-5 -6h-9q-47 65 -175 146q-72 -25 -192 -123h-12q15 91 193 209z" />
    <glyph glyph-name="uni1EA7" unicode="&#x1ea7;" horiz-adv-x="569" 
d="M340 793q-55 -68 -96 -177t-60 -203q-20 -96 -14.5 -149.5t44.5 -9.5q31 34 64.5 80.5t65.5 95.5q68 108 103 181q91 193 43 252q-49 55 -150 -70zM545 739q-3 -16 14 -25q19 -13 23 -18q8 -15 -7 -46q-19 -45 -41 -144q-25 -114 -29 -199q-1 -14 -0.5 -21.5t18.5 13.5
q22 27 79 109q52 76 89 138t54 92q10 15 21 0.5t-15 -66.5q-23 -39 -59.5 -108.5t-111.5 -186.5q-37 -61 -68.5 -105t-56.5 -66q-23 -21 -55 26.5t-37 120.5q-4 34 3 94q2 38 -15 16q-18 -24 -42.5 -71.5t-50.5 -92.5q-27 -45 -52 -75t-44 -18q-68 41 -99 108
q-26 55 -22 112q6 120 49.5 228t105.5 191q132 177 251 187q123 10 98 -193zM535 1189h4q101 -41 161 -226l-3 -17l-5 -6h-9q-47 65 -175 146q-72 -25 -192 -123h-12q15 91 193 209zM540 1428h10q15 -7 101 -137q100 -119 102 -141l-5 -4h-10q-81 0 -290 181l-10 31
q0 41 102 70z" />
    <glyph glyph-name="uni1EA5" unicode="&#x1ea5;" horiz-adv-x="569" 
d="M340 793q-55 -68 -96 -177t-60 -203q-20 -96 -14.5 -149.5t44.5 -9.5q31 34 64.5 80.5t65.5 95.5q68 108 103 181q91 193 43 252q-49 55 -150 -70zM545 739q-3 -16 14 -25q19 -13 23 -18q8 -15 -7 -46q-19 -45 -41 -144q-25 -114 -29 -199q-1 -14 -0.5 -21.5t18.5 13.5
q22 27 79 109q52 76 89 138t54 92q10 15 21 0.5t-15 -66.5q-23 -39 -59.5 -108.5t-111.5 -186.5q-37 -61 -68.5 -105t-56.5 -66q-23 -21 -55 26.5t-37 120.5q-4 34 3 94q2 38 -15 16q-18 -24 -42.5 -71.5t-50.5 -92.5q-27 -45 -52 -75t-44 -18q-68 41 -99 108
q-26 55 -22 112q6 120 49.5 228t105.5 191q132 177 251 187q123 10 98 -193zM535 1189h4q101 -41 161 -226l-3 -17l-5 -6h-9q-47 65 -175 146q-72 -25 -192 -123h-12q15 91 193 209zM646 1414q104 -36 104 -81q-137 -107 -416 -157l-10 15z" />
    <glyph glyph-name="uni1EA9" unicode="&#x1ea9;" horiz-adv-x="569" 
d="M340 793q-55 -68 -96 -177t-60 -203q-20 -96 -14.5 -149.5t44.5 -9.5q31 34 64.5 80.5t65.5 95.5q68 108 103 181q91 193 43 252q-49 55 -150 -70zM545 739q-3 -16 14 -25q19 -13 23 -18q8 -15 -7 -46q-19 -45 -41 -144q-25 -114 -29 -199q-1 -14 -0.5 -21.5t18.5 13.5
q22 27 79 109q52 76 89 138t54 92q10 15 21 0.5t-15 -66.5q-23 -39 -59.5 -108.5t-111.5 -186.5q-37 -61 -68.5 -105t-56.5 -66q-23 -21 -55 26.5t-37 120.5q-4 34 3 94q2 38 -15 16q-18 -24 -42.5 -71.5t-50.5 -92.5q-27 -45 -52 -75t-44 -18q-68 41 -99 108
q-26 55 -22 112q6 120 49.5 228t105.5 191q132 177 251 187q123 10 98 -193zM535 1189h4q101 -41 161 -226l-3 -17l-5 -6h-9q-47 65 -175 146q-72 -25 -192 -123h-12q15 91 193 209zM653 1205q11 11 72.5 50t71.5 59q45 55 12 73t-66.5 16t-63 -12t-48.5 -15
q-27 10 -15.5 27t46.5 38q20 11 60.5 22t82.5 15q42 3 76 -5.5t42 -35.5q9 -29 -6.5 -57.5t-42.5 -55.5t-61 -55.5t-59 -49.5q-49 -42 -52.5 -72.5t-10.5 -41.5q-5 -8 -16 -2t-17 20q-8 13 -15.5 38t10.5 44z" />
    <glyph glyph-name="uni1EAB" unicode="&#x1eab;" horiz-adv-x="569" 
d="M340 793q-55 -68 -96 -177t-60 -203q-20 -96 -14.5 -149.5t44.5 -9.5q31 34 64.5 80.5t65.5 95.5q68 108 103 181q91 193 43 252q-49 55 -150 -70zM545 739q-3 -16 14 -25q19 -13 23 -18q8 -15 -7 -46q-19 -45 -41 -144q-25 -114 -29 -199q-1 -14 -0.5 -21.5t18.5 13.5
q22 27 79 109q52 76 89 138t54 92q10 15 21 0.5t-15 -66.5q-23 -39 -59.5 -108.5t-111.5 -186.5q-37 -61 -68.5 -105t-56.5 -66q-23 -21 -55 26.5t-37 120.5q-4 34 3 94q2 38 -15 16q-18 -24 -42.5 -71.5t-50.5 -92.5q-27 -45 -52 -75t-44 -18q-68 41 -99 108
q-26 55 -22 112q6 120 49.5 228t105.5 191q132 177 251 187q123 10 98 -193zM535 1189h4q101 -41 161 -226l-3 -17l-5 -6h-9q-47 65 -175 146q-72 -25 -192 -123h-12q15 91 193 209zM571 1324q169 -31 213 -22l20 4q23 4 52 44l10 2l17 -11q15 -92 -126 -142l-35 -2
q-222 39 -265 31q-23 -5 -84 -61l-16 7l-1 5q44 121 151 142l9 2q35 6 55 1z" />
    <glyph glyph-name="uni1EAD" unicode="&#x1ead;" horiz-adv-x="569" 
d="M340 793q-55 -68 -96 -177t-60 -203q-20 -96 -14.5 -149.5t44.5 -9.5q31 34 64.5 80.5t65.5 95.5q68 108 103 181q91 193 43 252q-49 55 -150 -70zM545 739q-3 -16 14 -25q19 -13 23 -18q8 -15 -7 -46q-19 -45 -41 -144q-25 -114 -29 -199q-1 -14 -0.5 -21.5t18.5 13.5
q22 27 79 109q52 76 89 138t54 92q10 15 21 0.5t-15 -66.5q-23 -39 -59.5 -108.5t-111.5 -186.5q-37 -61 -68.5 -105t-56.5 -66q-23 -21 -55 26.5t-37 120.5q-4 34 3 94q2 38 -15 16q-18 -24 -42.5 -71.5t-50.5 -92.5q-27 -45 -52 -75t-44 -18q-68 41 -99 108
q-26 55 -22 112q6 120 49.5 228t105.5 191q132 177 251 187q123 10 98 -193zM535 1189h4q101 -41 161 -226l-3 -17l-5 -6h-9q-47 65 -175 146q-72 -25 -192 -123h-12q15 91 193 209zM328 76q36 -8 40 -37q3 -25 -16 -61q-19 -34 -46 -58q-29 -26 -49 -27q-25 -2 -33 29
q-8 29 -2 71q7 43 33 66q28 24 73 17z" />
    <glyph glyph-name="abreve" unicode="&#x103;" horiz-adv-x="569" 
d="M340 793q-55 -68 -96 -177t-60 -203q-20 -96 -14.5 -149.5t44.5 -9.5q31 34 64.5 80.5t65.5 95.5q68 108 103 181q91 193 43 252q-49 55 -150 -70zM545 739q-3 -16 14 -25q19 -13 23 -18q8 -15 -7 -46q-19 -45 -41 -144q-25 -114 -29 -199q-1 -14 -0.5 -21.5t18.5 13.5
q22 27 79 109q52 76 89 138t54 92q10 15 21 0.5t-15 -66.5q-23 -39 -59.5 -108.5t-111.5 -186.5q-37 -61 -68.5 -105t-56.5 -66q-23 -21 -55 26.5t-37 120.5q-4 34 3 94q2 38 -15 16q-18 -24 -42.5 -71.5t-50.5 -92.5q-27 -45 -52 -75t-44 -18q-68 41 -99 108
q-26 55 -22 112q6 120 49.5 228t105.5 191q132 177 251 187q123 10 98 -193zM814 1155q-29 -40 -83 -89q-57 -47 -87 -63t-75 -22q-101 -26 -183 57q-24 36 -31 83q7 60 107 9q21 -84 112 -81q39 3 69 18t118 78q21 21 53 10z" />
    <glyph glyph-name="uni1EB1" unicode="&#x1eb1;" horiz-adv-x="569" 
d="M340 793q-55 -68 -96 -177t-60 -203q-20 -96 -14.5 -149.5t44.5 -9.5q31 34 64.5 80.5t65.5 95.5q68 108 103 181q91 193 43 252q-49 55 -150 -70zM545 739q-3 -16 14 -25q19 -13 23 -18q8 -15 -7 -46q-19 -45 -41 -144q-25 -114 -29 -199q-1 -14 -0.5 -21.5t18.5 13.5
q22 27 79 109q52 76 89 138t54 92q10 15 21 0.5t-15 -66.5q-23 -39 -59.5 -108.5t-111.5 -186.5q-37 -61 -68.5 -105t-56.5 -66q-23 -21 -55 26.5t-37 120.5q-4 34 3 94q2 38 -15 16q-18 -24 -42.5 -71.5t-50.5 -92.5q-27 -45 -52 -75t-44 -18q-68 41 -99 108
q-26 55 -22 112q6 120 49.5 228t105.5 191q132 177 251 187q123 10 98 -193zM814 1155q-29 -40 -83 -89q-57 -47 -87 -63t-75 -22q-101 -26 -183 57q-24 36 -31 83q7 60 107 9q21 -84 112 -81q39 3 69 18t118 78q21 21 53 10zM399 1407h10q15 -7 101 -137q100 -119 102 -141
l-5 -4h-10q-81 0 -290 181l-10 31q0 41 102 70z" />
    <glyph glyph-name="uni1EAF" unicode="&#x1eaf;" horiz-adv-x="569" 
d="M340 793q-55 -68 -96 -177t-60 -203q-20 -96 -14.5 -149.5t44.5 -9.5q31 34 64.5 80.5t65.5 95.5q68 108 103 181q91 193 43 252q-49 55 -150 -70zM545 739q-3 -16 14 -25q19 -13 23 -18q8 -15 -7 -46q-19 -45 -41 -144q-25 -114 -29 -199q-1 -14 -0.5 -21.5t18.5 13.5
q22 27 79 109q52 76 89 138t54 92q10 15 21 0.5t-15 -66.5q-23 -39 -59.5 -108.5t-111.5 -186.5q-37 -61 -68.5 -105t-56.5 -66q-23 -21 -55 26.5t-37 120.5q-4 34 3 94q2 38 -15 16q-18 -24 -42.5 -71.5t-50.5 -92.5q-27 -45 -52 -75t-44 -18q-68 41 -99 108
q-26 55 -22 112q6 120 49.5 228t105.5 191q132 177 251 187q123 10 98 -193zM814 1155q-29 -40 -83 -89q-57 -47 -87 -63t-75 -22q-101 -26 -183 57q-24 36 -31 83q7 60 107 9q21 -84 112 -81q39 3 69 18t118 78q21 21 53 10zM858 1372q104 -36 104 -81q-137 -107 -416 -157
l-10 15z" />
    <glyph glyph-name="uni1EB3" unicode="&#x1eb3;" horiz-adv-x="569" 
d="M340 793q-55 -68 -96 -177t-60 -203q-20 -96 -14.5 -149.5t44.5 -9.5q31 34 64.5 80.5t65.5 95.5q68 108 103 181q91 193 43 252q-49 55 -150 -70zM545 739q-3 -16 14 -25q19 -13 23 -18q8 -15 -7 -46q-19 -45 -41 -144q-25 -114 -29 -199q-1 -14 -0.5 -21.5t18.5 13.5
q22 27 79 109q52 76 89 138t54 92q10 15 21 0.5t-15 -66.5q-23 -39 -59.5 -108.5t-111.5 -186.5q-37 -61 -68.5 -105t-56.5 -66q-23 -21 -55 26.5t-37 120.5q-4 34 3 94q2 38 -15 16q-18 -24 -42.5 -71.5t-50.5 -92.5q-27 -45 -52 -75t-44 -18q-68 41 -99 108
q-26 55 -22 112q6 120 49.5 228t105.5 191q132 177 251 187q123 10 98 -193zM814 1155q-29 -40 -83 -89q-57 -47 -87 -63t-75 -22q-101 -26 -183 57q-24 36 -31 83q7 60 107 9q21 -84 112 -81q39 3 69 18t118 78q21 21 53 10zM554 1219q11 11 72.5 50t71.5 59q45 55 12 73
t-66.5 16t-63 -12t-48.5 -15q-27 10 -15.5 27t46.5 38q20 11 60.5 22t82.5 15q42 3 76 -5.5t42 -35.5q9 -29 -6.5 -57.5t-42.5 -55.5t-61 -55.5t-59 -49.5q-49 -42 -52.5 -72.5t-10.5 -41.5q-5 -8 -16 -2t-17 20q-8 13 -15.5 38t10.5 44z" />
    <glyph glyph-name="uni1EB5" unicode="&#x1eb5;" horiz-adv-x="569" 
d="M340 793q-55 -68 -96 -177t-60 -203q-20 -96 -14.5 -149.5t44.5 -9.5q31 34 64.5 80.5t65.5 95.5q68 108 103 181q91 193 43 252q-49 55 -150 -70zM545 739q-3 -16 14 -25q19 -13 23 -18q8 -15 -7 -46q-19 -45 -41 -144q-25 -114 -29 -199q-1 -14 -0.5 -21.5t18.5 13.5
q22 27 79 109q52 76 89 138t54 92q10 15 21 0.5t-15 -66.5q-23 -39 -59.5 -108.5t-111.5 -186.5q-37 -61 -68.5 -105t-56.5 -66q-23 -21 -55 26.5t-37 120.5q-4 34 3 94q2 38 -15 16q-18 -24 -42.5 -71.5t-50.5 -92.5q-27 -45 -52 -75t-44 -18q-68 41 -99 108
q-26 55 -22 112q6 120 49.5 228t105.5 191q132 177 251 187q123 10 98 -193zM814 1155q-29 -40 -83 -89q-57 -47 -87 -63t-75 -22q-101 -26 -183 57q-24 36 -31 83q7 60 107 9q21 -84 112 -81q39 3 69 18t118 78q21 21 53 10zM656 1309q169 -31 213 -22l20 4q23 4 52 44
l10 2l17 -11q15 -92 -126 -142l-35 -2q-222 39 -265 31q-23 -5 -84 -61l-16 7l-1 5q44 121 151 142l9 2q35 6 55 1z" />
    <glyph glyph-name="uni1EB7" unicode="&#x1eb7;" horiz-adv-x="569" 
d="M340 793q-55 -68 -96 -177t-60 -203q-20 -96 -14.5 -149.5t44.5 -9.5q31 34 64.5 80.5t65.5 95.5q68 108 103 181q91 193 43 252q-49 55 -150 -70zM545 739q-3 -16 14 -25q19 -13 23 -18q8 -15 -7 -46q-19 -45 -41 -144q-25 -114 -29 -199q-1 -14 -0.5 -21.5t18.5 13.5
q22 27 79 109q52 76 89 138t54 92q10 15 21 0.5t-15 -66.5q-23 -39 -59.5 -108.5t-111.5 -186.5q-37 -61 -68.5 -105t-56.5 -66q-23 -21 -55 26.5t-37 120.5q-4 34 3 94q2 38 -15 16q-18 -24 -42.5 -71.5t-50.5 -92.5q-27 -45 -52 -75t-44 -18q-68 41 -99 108
q-26 55 -22 112q6 120 49.5 228t105.5 191q132 177 251 187q123 10 98 -193zM814 1155q-29 -40 -83 -89q-57 -47 -87 -63t-75 -22q-101 -26 -183 57q-24 36 -31 83q7 60 107 9q21 -84 112 -81q39 3 69 18t118 78q21 21 53 10zM328 76q36 -8 40 -37q3 -25 -16 -61
q-19 -34 -46 -58q-29 -26 -49 -27q-25 -2 -33 29q-8 29 -2 71q7 43 33 66q28 24 73 17z" />
    <glyph glyph-name="egrave" unicode="&#xe8;" horiz-adv-x="504" 
d="M262 603q-25 -64 -37 -125q-9 -42 29 -14q68 51 161 168q41 54 73.5 109t42.5 98q12 59 -15.5 62.5t-72.5 -33.5q-45 -38 -96.5 -108t-84.5 -157zM216 374q-4 -71 20 -110q48 -83 144 -16q75 65 131 134q48 56 96.5 126t83.5 129q14 20 22 2q6 -21 -19 -65
q-38 -65 -89 -143.5t-134 -182.5q-145 -174 -278 -155q-62 8 -98.5 71t-26.5 192q7 111 60 226.5t112 194.5q143 191 275 176q98 -13 89 -123q-14 -67 -38 -117q-58 -124 -156 -220q-93 -87 -177 -101q-17 -2 -17 -18zM385 1265h10q15 -7 101 -137q100 -119 102 -141l-5 -4
h-10q-81 0 -290 181l-10 31q0 41 102 70z" />
    <glyph glyph-name="eacute" unicode="&#xe9;" horiz-adv-x="504" 
d="M262 603q-25 -64 -37 -125q-9 -42 29 -14q68 51 161 168q41 54 73.5 109t42.5 98q12 59 -15.5 62.5t-72.5 -33.5q-45 -38 -96.5 -108t-84.5 -157zM216 374q-4 -71 20 -110q48 -83 144 -16q75 65 131 134q48 56 96.5 126t83.5 129q14 20 22 2q6 -21 -19 -65
q-38 -65 -89 -143.5t-134 -182.5q-145 -174 -278 -155q-62 8 -98.5 71t-26.5 192q7 111 60 226.5t112 194.5q143 191 275 176q98 -13 89 -123q-14 -67 -38 -117q-58 -124 -156 -220q-93 -87 -177 -101q-17 -2 -17 -18zM646 1202q104 -36 104 -81q-137 -107 -416 -157l-10 15
z" />
    <glyph glyph-name="uni1EBB" unicode="&#x1ebb;" horiz-adv-x="504" 
d="M262 603q-25 -64 -37 -125q-9 -42 29 -14q68 51 161 168q41 54 73.5 109t42.5 98q12 59 -15.5 62.5t-72.5 -33.5q-45 -38 -96.5 -108t-84.5 -157zM216 374q-4 -71 20 -110q48 -83 144 -16q75 65 131 134q48 56 96.5 126t83.5 129q14 20 22 2q6 -21 -19 -65
q-38 -65 -89 -143.5t-134 -182.5q-145 -174 -278 -155q-62 8 -98.5 71t-26.5 192q7 111 60 226.5t112 194.5q143 191 275 176q98 -13 89 -123q-14 -67 -38 -117q-58 -124 -156 -220q-93 -87 -177 -101q-17 -2 -17 -18zM526 1078q11 11 72.5 50t71.5 59q45 55 12 73t-66.5 16
t-63 -12t-48.5 -15q-27 10 -15.5 27t46.5 38q20 11 60.5 22t82.5 15q42 3 76 -5.5t42 -35.5q9 -29 -6.5 -57.5t-42.5 -55.5t-61 -55.5t-59 -49.5q-49 -42 -52.5 -72.5t-10.5 -41.5q-5 -8 -16 -2t-17 20q-8 13 -15.5 38t10.5 44z" />
    <glyph glyph-name="uni1EBD" unicode="&#x1ebd;" horiz-adv-x="504" 
d="M262 603q-25 -64 -37 -125q-9 -42 29 -14q68 51 161 168q41 54 73.5 109t42.5 98q12 59 -15.5 62.5t-72.5 -33.5q-45 -38 -96.5 -108t-84.5 -157zM216 374q-4 -71 20 -110q48 -83 144 -16q75 65 131 134q48 56 96.5 126t83.5 129q14 20 22 2q6 -21 -19 -65
q-38 -65 -89 -143.5t-134 -182.5q-145 -174 -278 -155q-62 8 -98.5 71t-26.5 192q7 111 60 226.5t112 194.5q143 191 275 176q98 -13 89 -123q-14 -67 -38 -117q-58 -124 -156 -220q-93 -87 -177 -101q-17 -2 -17 -18zM472 1161q169 -31 213 -22l20 4q23 4 52 44l10 2
l17 -11q15 -92 -126 -142l-35 -2q-222 39 -265 31q-23 -5 -84 -61l-16 7l-1 5q44 121 151 142l9 2q35 6 55 1z" />
    <glyph glyph-name="uni1EB9" unicode="&#x1eb9;" horiz-adv-x="504" 
d="M262 603q-25 -64 -37 -125q-9 -42 29 -14q68 51 161 168q41 54 73.5 109t42.5 98q12 59 -15.5 62.5t-72.5 -33.5q-45 -38 -96.5 -108t-84.5 -157zM216 374q-4 -71 20 -110q48 -83 144 -16q75 65 131 134q48 56 96.5 126t83.5 129q14 20 22 2q6 -21 -19 -65
q-38 -65 -89 -143.5t-134 -182.5q-145 -174 -278 -155q-62 8 -98.5 71t-26.5 192q7 111 60 226.5t112 194.5q143 191 275 176q98 -13 89 -123q-14 -67 -38 -117q-58 -124 -156 -220q-93 -87 -177 -101q-17 -2 -17 -18zM328 76q36 -8 40 -37q3 -25 -16 -61q-19 -34 -46 -58
q-29 -26 -49 -27q-25 -2 -33 29q-8 29 -2 71q7 43 33 66q28 24 73 17z" />
    <glyph glyph-name="ecircumflex" unicode="&#xea;" horiz-adv-x="504" 
d="M262 603q-25 -64 -37 -125q-9 -42 29 -14q68 51 161 168q41 54 73.5 109t42.5 98q12 59 -15.5 62.5t-72.5 -33.5q-45 -38 -96.5 -108t-84.5 -157zM216 374q-4 -71 20 -110q48 -83 144 -16q75 65 131 134q48 56 96.5 126t83.5 129q14 20 22 2q6 -21 -19 -65
q-38 -65 -89 -143.5t-134 -182.5q-145 -174 -278 -155q-62 8 -98.5 71t-26.5 192q7 111 60 226.5t112 194.5q143 191 275 176q98 -13 89 -123q-14 -67 -38 -117q-58 -124 -156 -220q-93 -87 -177 -101q-17 -2 -17 -18zM535 1189h4q101 -41 161 -226l-3 -17l-5 -6h-9
q-47 65 -175 146q-72 -25 -192 -123h-12q15 91 193 209z" />
    <glyph glyph-name="uni1EC1" unicode="&#x1ec1;" horiz-adv-x="504" 
d="M262 603q-25 -64 -37 -125q-9 -42 29 -14q68 51 161 168q41 54 73.5 109t42.5 98q12 59 -15.5 62.5t-72.5 -33.5q-45 -38 -96.5 -108t-84.5 -157zM216 374q-4 -71 20 -110q48 -83 144 -16q75 65 131 134q48 56 96.5 126t83.5 129q14 20 22 2q6 -21 -19 -65
q-38 -65 -89 -143.5t-134 -182.5q-145 -174 -278 -155q-62 8 -98.5 71t-26.5 192q7 111 60 226.5t112 194.5q143 191 275 176q98 -13 89 -123q-14 -67 -38 -117q-58 -124 -156 -220q-93 -87 -177 -101q-17 -2 -17 -18zM535 1189h4q101 -41 161 -226l-3 -17l-5 -6h-9
q-47 65 -175 146q-72 -25 -192 -123h-12q15 91 193 209zM540 1428h10q15 -7 101 -137q100 -119 102 -141l-5 -4h-10q-81 0 -290 181l-10 31q0 41 102 70z" />
    <glyph glyph-name="uni1EBF" unicode="&#x1ebf;" horiz-adv-x="504" 
d="M262 603q-25 -64 -37 -125q-9 -42 29 -14q68 51 161 168q41 54 73.5 109t42.5 98q12 59 -15.5 62.5t-72.5 -33.5q-45 -38 -96.5 -108t-84.5 -157zM216 374q-4 -71 20 -110q48 -83 144 -16q75 65 131 134q48 56 96.5 126t83.5 129q14 20 22 2q6 -21 -19 -65
q-38 -65 -89 -143.5t-134 -182.5q-145 -174 -278 -155q-62 8 -98.5 71t-26.5 192q7 111 60 226.5t112 194.5q143 191 275 176q98 -13 89 -123q-14 -67 -38 -117q-58 -124 -156 -220q-93 -87 -177 -101q-17 -2 -17 -18zM535 1189h4q101 -41 161 -226l-3 -17l-5 -6h-9
q-47 65 -175 146q-72 -25 -192 -123h-12q15 91 193 209zM646 1414q104 -36 104 -81q-137 -107 -416 -157l-10 15z" />
    <glyph glyph-name="uni1EC3" unicode="&#x1ec3;" horiz-adv-x="504" 
d="M262 603q-25 -64 -37 -125q-9 -42 29 -14q68 51 161 168q41 54 73.5 109t42.5 98q12 59 -15.5 62.5t-72.5 -33.5q-45 -38 -96.5 -108t-84.5 -157zM216 374q-4 -71 20 -110q48 -83 144 -16q75 65 131 134q48 56 96.5 126t83.5 129q14 20 22 2q6 -21 -19 -65
q-38 -65 -89 -143.5t-134 -182.5q-145 -174 -278 -155q-62 8 -98.5 71t-26.5 192q7 111 60 226.5t112 194.5q143 191 275 176q98 -13 89 -123q-14 -67 -38 -117q-58 -124 -156 -220q-93 -87 -177 -101q-17 -2 -17 -18zM535 1189h4q101 -41 161 -226l-3 -17l-5 -6h-9
q-47 65 -175 146q-72 -25 -192 -123h-12q15 91 193 209zM653 1205q11 11 72.5 50t71.5 59q45 55 12 73t-66.5 16t-63 -12t-48.5 -15q-27 10 -15.5 27t46.5 38q20 11 60.5 22t82.5 15q42 3 76 -5.5t42 -35.5q9 -29 -6.5 -57.5t-42.5 -55.5t-61 -55.5t-59 -49.5
q-49 -42 -52.5 -72.5t-10.5 -41.5q-5 -8 -16 -2t-17 20q-8 13 -15.5 38t10.5 44z" />
    <glyph glyph-name="uni1EC5" unicode="&#x1ec5;" horiz-adv-x="504" 
d="M262 603q-25 -64 -37 -125q-9 -42 29 -14q68 51 161 168q41 54 73.5 109t42.5 98q12 59 -15.5 62.5t-72.5 -33.5q-45 -38 -96.5 -108t-84.5 -157zM216 374q-4 -71 20 -110q48 -83 144 -16q75 65 131 134q48 56 96.5 126t83.5 129q14 20 22 2q6 -21 -19 -65
q-38 -65 -89 -143.5t-134 -182.5q-145 -174 -278 -155q-62 8 -98.5 71t-26.5 192q7 111 60 226.5t112 194.5q143 191 275 176q98 -13 89 -123q-14 -67 -38 -117q-58 -124 -156 -220q-93 -87 -177 -101q-17 -2 -17 -18zM535 1189h4q101 -41 161 -226l-3 -17l-5 -6h-9
q-47 65 -175 146q-72 -25 -192 -123h-12q15 91 193 209zM571 1324q169 -31 213 -22l20 4q23 4 52 44l10 2l17 -11q15 -92 -126 -142l-35 -2q-222 39 -265 31q-23 -5 -84 -61l-16 7l-1 5q44 121 151 142l9 2q35 6 55 1z" />
    <glyph glyph-name="uni1EC7" unicode="&#x1ec7;" horiz-adv-x="504" 
d="M262 603q-25 -64 -37 -125q-9 -42 29 -14q68 51 161 168q41 54 73.5 109t42.5 98q12 59 -15.5 62.5t-72.5 -33.5q-45 -38 -96.5 -108t-84.5 -157zM216 374q-4 -71 20 -110q48 -83 144 -16q75 65 131 134q48 56 96.5 126t83.5 129q14 20 22 2q6 -21 -19 -65
q-38 -65 -89 -143.5t-134 -182.5q-145 -174 -278 -155q-62 8 -98.5 71t-26.5 192q7 111 60 226.5t112 194.5q143 191 275 176q98 -13 89 -123q-14 -67 -38 -117q-58 -124 -156 -220q-93 -87 -177 -101q-17 -2 -17 -18zM535 1189h4q101 -41 161 -226l-3 -17l-5 -6h-9
q-47 65 -175 146q-72 -25 -192 -123h-12q15 91 193 209zM328 76q36 -8 40 -37q3 -25 -16 -61q-19 -34 -46 -58q-29 -26 -49 -27q-25 -2 -33 29q-8 29 -2 71q7 43 33 66q28 24 73 17z" />
    <glyph glyph-name="igrave" unicode="&#xec;" horiz-adv-x="266" 
d="M255 629q-9 -24 -34 -108t-38 -149.5t-14 -104.5q-2 -38 18 -13q15 18 42.5 56t57.5 82q30 43 85 120.5t74 104.5q10 15 19.5 1.5t-17.5 -64.5q-23 -39 -81 -130t-91 -147q-34 -56 -66.5 -104t-58.5 -70q-24 -22 -56 25q-35 51 -39 119q-4 60 11.5 126t45.5 143
q25 66 53.5 125.5t41.5 85.5q17 33 43.5 -3t3.5 -95zM151 1060h10q15 -7 101 -137q100 -119 102 -141l-5 -4h-10q-81 0 -290 181l-10 31q0 41 102 70z" />
    <glyph glyph-name="iacute" unicode="&#xed;" horiz-adv-x="266" 
d="M255 629q-9 -24 -34 -108t-38 -149.5t-14 -104.5q-2 -38 18 -13q15 18 42.5 56t57.5 82q30 43 85 120.5t74 104.5q10 15 19.5 1.5t-17.5 -64.5q-23 -39 -81 -130t-91 -147q-34 -56 -66.5 -104t-58.5 -70q-24 -22 -56 25q-35 51 -39 119q-4 60 11.5 126t45.5 143
q25 66 53.5 125.5t41.5 85.5q17 33 43.5 -3t3.5 -95zM462 1046q104 -36 104 -81q-137 -107 -416 -157l-10 15z" />
    <glyph glyph-name="uni1EC9" unicode="&#x1ec9;" horiz-adv-x="266" 
d="M255 629q-9 -24 -34 -108t-38 -149.5t-14 -104.5q-2 -38 18 -13q15 18 42.5 56t57.5 82q30 43 85 120.5t74 104.5q10 15 19.5 1.5t-17.5 -64.5q-23 -39 -81 -130t-91 -147q-34 -56 -66.5 -104t-58.5 -70q-24 -22 -56 25q-35 51 -39 119q-4 60 11.5 126t45.5 143
q25 66 53.5 125.5t41.5 85.5q17 33 43.5 -3t3.5 -95zM250 887q11 11 72.5 50t71.5 59q45 55 12 73t-66.5 16t-63 -12t-48.5 -15q-27 10 -15.5 27t46.5 38q20 11 60.5 22t82.5 15q42 3 76 -5.5t42 -35.5q9 -29 -6.5 -57.5t-42.5 -55.5t-61 -55.5t-59 -49.5
q-49 -42 -52.5 -72.5t-10.5 -41.5q-5 -8 -16 -2t-17 20q-8 13 -15.5 38t10.5 44z" />
    <glyph glyph-name="itilde" unicode="&#x129;" horiz-adv-x="266" 
d="M255 629q-9 -24 -34 -108t-38 -149.5t-14 -104.5q-2 -38 18 -13q15 18 42.5 56t57.5 82q30 43 85 120.5t74 104.5q10 15 19.5 1.5t-17.5 -64.5q-23 -39 -81 -130t-91 -147q-34 -56 -66.5 -104t-58.5 -70q-24 -22 -56 25q-35 51 -39 119q-4 60 11.5 126t45.5 143
q25 66 53.5 125.5t41.5 85.5q17 33 43.5 -3t3.5 -95zM260 998q169 -31 213 -22l20 4q23 4 52 44l10 2l17 -11q15 -92 -126 -142l-35 -2q-222 39 -264 31q-23 -5 -85 -61l-16 7l-1 5q45 121 151 142l10 2q34 6 54 1z" />
    <glyph glyph-name="uni1ECB" unicode="&#x1ecb;" horiz-adv-x="266" 
d="M255 629q-9 -24 -34 -108t-38 -149.5t-14 -104.5q-2 -38 18 -13q15 18 42.5 56t57.5 82q30 43 85 120.5t74 104.5q10 15 19.5 1.5t-17.5 -64.5q-23 -39 -81 -130t-91 -147q-34 -56 -66.5 -104t-58.5 -70q-24 -22 -56 25q-35 51 -39 119q-4 60 11.5 126t45.5 143
q25 66 53.5 125.5t41.5 85.5q17 33 43.5 -3t3.5 -95zM329 937q29 -9 30.5 -36.5t-13.5 -56.5q-43 -74 -82 -74q-40 0 -16 93q25 87 81 74zM94 76q36 -8 41 -37q3 -25 -16 -61q-20 -34 -46 -58q-30 -26 -50 -27q-24 -2 -33 29q-8 29 -1 71q6 43 32 66q28 24 73 17z" />
    <glyph glyph-name="ograve" unicode="&#xf2;" horiz-adv-x="619" 
d="M238 618q-59 -187 -35 -305q22 -103 97 -116q75 -12 149 70q82 88 121 252q4 18 -9 15q-59 -14 -100 -4q-50 13 -78 54q-52 73 6 165q50 77 141 118q14 5 14 21q3 58 -33 59t-86 -41q-51 -42 -104 -117.5t-83 -170.5zM592 661q4 59 -7 94q-13 33 -37 20
q-105 -58 -116 -137q-12 -82 148 -19q8 3 10 18.5t2 23.5zM675 675q-3 -15 10 -7q73 39 144 83q25 15 27 -16q0 -17 -53 -62q-57 -51 -130 -93q-12 -6 -16 -20q-15 -64 -47 -146t-83 -154q-51 -73 -120.5 -124t-157.5 -54q-84 -3 -135 62.5t-60 170.5t28.5 235t131.5 256
q112 149 236 183q124 33 153 -80q5 -27 11 -27q12 -2 22 -9q26 -23 36 -73q10 -52 3 -125zM434 1301h10q15 -7 101 -137q100 -119 102 -141l-5 -4h-10q-81 0 -290 181l-10 31q0 41 102 70z" />
    <glyph glyph-name="oacute" unicode="&#xf3;" horiz-adv-x="619" 
d="M238 618q-59 -187 -35 -305q22 -103 97 -116q75 -12 149 70q82 88 121 252q4 18 -9 15q-59 -14 -100 -4q-50 13 -78 54q-52 73 6 165q50 77 141 118q14 5 14 21q3 58 -33 59t-86 -41q-51 -42 -104 -117.5t-83 -170.5zM592 661q4 59 -7 94q-13 33 -37 20
q-105 -58 -116 -137q-12 -82 148 -19q8 3 10 18.5t2 23.5zM675 675q-3 -15 10 -7q73 39 144 83q25 15 27 -16q0 -17 -53 -62q-57 -51 -130 -93q-12 -6 -16 -20q-15 -64 -47 -146t-83 -154q-51 -73 -120.5 -124t-157.5 -54q-84 -3 -135 62.5t-60 170.5t28.5 235t131.5 256
q112 149 236 183q124 33 153 -80q5 -27 11 -27q12 -2 22 -9q26 -23 36 -73q10 -52 3 -125zM738 1272q104 -36 104 -81q-137 -107 -416 -157l-10 15z" />
    <glyph glyph-name="uni1ECF" unicode="&#x1ecf;" horiz-adv-x="619" 
d="M238 618q-59 -187 -35 -305q22 -103 97 -116q75 -12 149 70q82 88 121 252q4 18 -9 15q-59 -14 -100 -4q-50 13 -78 54q-52 73 6 165q50 77 141 118q14 5 14 21q3 58 -33 59t-86 -41q-51 -42 -104 -117.5t-83 -170.5zM592 661q4 59 -7 94q-13 33 -37 20
q-105 -58 -116 -137q-12 -82 148 -19q8 3 10 18.5t2 23.5zM675 675q-3 -15 10 -7q73 39 144 83q25 15 27 -16q0 -17 -53 -62q-57 -51 -130 -93q-12 -6 -16 -20q-15 -64 -47 -146t-83 -154q-51 -73 -120.5 -124t-157.5 -54q-84 -3 -135 62.5t-60 170.5t28.5 235t131.5 256
q112 149 236 183q124 33 153 -80q5 -27 11 -27q12 -2 22 -9q26 -23 36 -73q10 -52 3 -125zM625 1078q11 11 72.5 50t71.5 59q45 55 12 73t-66.5 16t-63 -12t-48.5 -15q-27 10 -15.5 27t46.5 38q20 11 60.5 22t82.5 15q42 3 76 -5.5t42 -35.5q9 -29 -6.5 -57.5t-42.5 -55.5
t-61 -55.5t-59 -49.5q-49 -42 -52.5 -72.5t-10.5 -41.5q-5 -8 -16 -2t-17 20q-8 13 -15.5 38t10.5 44z" />
    <glyph glyph-name="otilde" unicode="&#xf5;" horiz-adv-x="619" 
d="M238 618q-59 -187 -35 -305q22 -103 97 -116q75 -12 149 70q82 88 121 252q4 18 -9 15q-59 -14 -100 -4q-50 13 -78 54q-52 73 6 165q50 77 141 118q14 5 14 21q3 58 -33 59t-86 -41q-51 -42 -104 -117.5t-83 -170.5zM592 661q4 59 -7 94q-13 33 -37 20
q-105 -58 -116 -137q-12 -82 148 -19q8 3 10 18.5t2 23.5zM675 675q-3 -15 10 -7q73 39 144 83q25 15 27 -16q0 -17 -53 -62q-57 -51 -130 -93q-12 -6 -16 -20q-15 -64 -47 -146t-83 -154q-51 -73 -120.5 -124t-157.5 -54q-84 -3 -135 62.5t-60 170.5t28.5 235t131.5 256
q112 149 236 183q124 33 153 -80q5 -27 11 -27q12 -2 22 -9q26 -23 36 -73q10 -52 3 -125zM550 1161q169 -31 213 -22l20 4q23 4 52 44l10 2l17 -11q15 -92 -126 -142l-35 -2q-222 39 -265 31q-23 -5 -84 -61l-16 7l-1 5q44 121 151 142l9 2q35 6 55 1z" />
    <glyph glyph-name="uni1ECD" unicode="&#x1ecd;" horiz-adv-x="619" 
d="M238 618q-59 -187 -35 -305q22 -103 97 -116q75 -12 149 70q82 88 121 252q4 18 -9 15q-59 -14 -100 -4q-50 13 -78 54q-52 73 6 165q50 77 141 118q14 5 14 21q3 58 -33 59t-86 -41q-51 -42 -104 -117.5t-83 -170.5zM592 661q4 59 -7 94q-13 33 -37 20
q-105 -58 -116 -137q-12 -82 148 -19q8 3 10 18.5t2 23.5zM675 675q-3 -15 10 -7q73 39 144 83q25 15 27 -16q0 -17 -53 -62q-57 -51 -130 -93q-12 -6 -16 -20q-15 -64 -47 -146t-83 -154q-51 -73 -120.5 -124t-157.5 -54q-84 -3 -135 62.5t-60 170.5t28.5 235t131.5 256
q112 149 236 183q124 33 153 -80q5 -27 11 -27q12 -2 22 -9q26 -23 36 -73q10 -52 3 -125zM208 33q36 -8 40 -37q3 -25 -16 -61q-19 -34 -46 -58q-29 -26 -49 -27q-25 -2 -33 29q-8 29 -2 71q7 43 33 66q28 24 73 17z" />
    <glyph glyph-name="ocircumflex" unicode="&#xf4;" horiz-adv-x="619" 
d="M238 618q-59 -187 -35 -305q22 -103 97 -116q75 -12 149 70q82 88 121 252q4 18 -9 15q-59 -14 -100 -4q-50 13 -78 54q-52 73 6 165q50 77 141 118q14 5 14 21q3 58 -33 59t-86 -41q-51 -42 -104 -117.5t-83 -170.5zM592 661q4 59 -7 94q-13 33 -37 20
q-105 -58 -116 -137q-12 -82 148 -19q8 3 10 18.5t2 23.5zM675 675q-3 -15 10 -7q73 39 144 83q25 15 27 -16q0 -17 -53 -62q-57 -51 -130 -93q-12 -6 -16 -20q-15 -64 -47 -146t-83 -154q-51 -73 -120.5 -124t-157.5 -54q-84 -3 -135 62.5t-60 170.5t28.5 235t131.5 256
q112 149 236 183q124 33 153 -80q5 -27 11 -27q12 -2 22 -9q26 -23 36 -73q10 -52 3 -125zM535 1231h4q101 -41 161 -226l-3 -17l-5 -6h-9q-47 65 -175 146q-72 -25 -192 -123h-12q15 91 193 209z" />
    <glyph glyph-name="uni1ED3" unicode="&#x1ed3;" horiz-adv-x="619" 
d="M238 618q-59 -187 -35 -305q22 -103 97 -116q75 -12 149 70q82 88 121 252q4 18 -9 15q-59 -14 -100 -4q-50 13 -78 54q-52 73 6 165q50 77 141 118q14 5 14 21q3 58 -33 59t-86 -41q-51 -42 -104 -117.5t-83 -170.5zM592 661q4 59 -7 94q-13 33 -37 20
q-105 -58 -116 -137q-12 -82 148 -19q8 3 10 18.5t2 23.5zM675 675q-3 -15 10 -7q73 39 144 83q25 15 27 -16q0 -17 -53 -62q-57 -51 -130 -93q-12 -6 -16 -20q-15 -64 -47 -146t-83 -154q-51 -73 -120.5 -124t-157.5 -54q-84 -3 -135 62.5t-60 170.5t28.5 235t131.5 256
q112 149 236 183q124 33 153 -80q5 -27 11 -27q12 -2 22 -9q26 -23 36 -73q10 -52 3 -125zM535 1231h4q101 -41 161 -226l-3 -17l-5 -6h-9q-47 65 -175 146q-72 -25 -192 -123h-12q15 91 193 209zM526 1471h10q15 -7 101 -137q100 -119 102 -141l-5 -4h-10q-81 0 -290 181
l-10 31q0 41 102 70z" />
    <glyph glyph-name="uni1ED1" unicode="&#x1ed1;" horiz-adv-x="619" 
d="M238 618q-59 -187 -35 -305q22 -103 97 -116q75 -12 149 70q82 88 121 252q4 18 -9 15q-59 -14 -100 -4q-50 13 -78 54q-52 73 6 165q50 77 141 118q14 5 14 21q3 58 -33 59t-86 -41q-51 -42 -104 -117.5t-83 -170.5zM592 661q4 59 -7 94q-13 33 -37 20
q-105 -58 -116 -137q-12 -82 148 -19q8 3 10 18.5t2 23.5zM675 675q-3 -15 10 -7q73 39 144 83q25 15 27 -16q0 -17 -53 -62q-57 -51 -130 -93q-12 -6 -16 -20q-15 -64 -47 -146t-83 -154q-51 -73 -120.5 -124t-157.5 -54q-84 -3 -135 62.5t-60 170.5t28.5 235t131.5 256
q112 149 236 183q124 33 153 -80q5 -27 11 -27q12 -2 22 -9q26 -23 36 -73q10 -52 3 -125zM535 1231h4q101 -41 161 -226l-3 -17l-5 -6h-9q-47 65 -175 146q-72 -25 -192 -123h-12q15 91 193 209zM646 1449q104 -36 104 -81q-137 -107 -416 -157l-10 15z" />
    <glyph glyph-name="uni1ED5" unicode="&#x1ed5;" horiz-adv-x="619" 
d="M238 618q-59 -187 -35 -305q22 -103 97 -116q75 -12 149 70q82 88 121 252q4 18 -9 15q-59 -14 -100 -4q-50 13 -78 54q-52 73 6 165q50 77 141 118q14 5 14 21q3 58 -33 59t-86 -41q-51 -42 -104 -117.5t-83 -170.5zM592 661q4 59 -7 94q-13 33 -37 20
q-105 -58 -116 -137q-12 -82 148 -19q8 3 10 18.5t2 23.5zM675 675q-3 -15 10 -7q73 39 144 83q25 15 27 -16q0 -17 -53 -62q-57 -51 -130 -93q-12 -6 -16 -20q-15 -64 -47 -146t-83 -154q-51 -73 -120.5 -124t-157.5 -54q-84 -3 -135 62.5t-60 170.5t28.5 235t131.5 256
q112 149 236 183q124 33 153 -80q5 -27 11 -27q12 -2 22 -9q26 -23 36 -73q10 -52 3 -125zM535 1231h4q101 -41 161 -226l-3 -17l-5 -6h-9q-47 65 -175 146q-72 -25 -192 -123h-12q15 91 193 209zM653 1255q11 11 72.5 50t71.5 59q45 55 12 73t-66.5 16t-63 -12t-48.5 -15
q-27 10 -15.5 27t46.5 38q20 11 60.5 22t82.5 15q42 3 76 -5.5t42 -35.5q9 -29 -6.5 -57.5t-42.5 -55.5t-61 -55.5t-59 -49.5q-49 -42 -52.5 -72.5t-10.5 -41.5q-5 -8 -16 -2t-17 20q-8 13 -15.5 38t10.5 44z" />
    <glyph glyph-name="uni1ED7" unicode="&#x1ed7;" horiz-adv-x="619" 
d="M238 618q-59 -187 -35 -305q22 -103 97 -116q75 -12 149 70q82 88 121 252q4 18 -9 15q-59 -14 -100 -4q-50 13 -78 54q-52 73 6 165q50 77 141 118q14 5 14 21q3 58 -33 59t-86 -41q-51 -42 -104 -117.5t-83 -170.5zM592 661q4 59 -7 94q-13 33 -37 20
q-105 -58 -116 -137q-12 -82 148 -19q8 3 10 18.5t2 23.5zM675 675q-3 -15 10 -7q73 39 144 83q25 15 27 -16q0 -17 -53 -62q-57 -51 -130 -93q-12 -6 -16 -20q-15 -64 -47 -146t-83 -154q-51 -73 -120.5 -124t-157.5 -54q-84 -3 -135 62.5t-60 170.5t28.5 235t131.5 256
q112 149 236 183q124 33 153 -80q5 -27 11 -27q12 -2 22 -9q26 -23 36 -73q10 -52 3 -125zM535 1231h4q101 -41 161 -226l-3 -17l-5 -6h-9q-47 65 -175 146q-72 -25 -192 -123h-12q15 91 193 209zM571 1360q169 -31 213 -22l20 4q23 4 52 44l10 2l17 -11q15 -92 -126 -142
l-35 -2q-222 39 -265 31q-23 -5 -84 -61l-16 7l-1 5q44 121 151 142l9 2q35 6 55 1z" />
    <glyph glyph-name="uni1ED9" unicode="&#x1ed9;" horiz-adv-x="619" 
d="M238 618q-59 -187 -35 -305q22 -103 97 -116q75 -12 149 70q82 88 121 252q4 18 -9 15q-59 -14 -100 -4q-50 13 -78 54q-52 73 6 165q50 77 141 118q14 5 14 21q3 58 -33 59t-86 -41q-51 -42 -104 -117.5t-83 -170.5zM592 661q4 59 -7 94q-13 33 -37 20
q-105 -58 -116 -137q-12 -82 148 -19q8 3 10 18.5t2 23.5zM675 675q-3 -15 10 -7q73 39 144 83q25 15 27 -16q0 -17 -53 -62q-57 -51 -130 -93q-12 -6 -16 -20q-15 -64 -47 -146t-83 -154q-51 -73 -120.5 -124t-157.5 -54q-84 -3 -135 62.5t-60 170.5t28.5 235t131.5 256
q112 149 236 183q124 33 153 -80q5 -27 11 -27q12 -2 22 -9q26 -23 36 -73q10 -52 3 -125zM535 1231h4q101 -41 161 -226l-3 -17l-5 -6h-9q-47 65 -175 146q-72 -25 -192 -123h-12q15 91 193 209zM208 33q36 -8 40 -37q3 -25 -16 -61q-19 -34 -46 -58q-29 -26 -49 -27
q-25 -2 -33 29q-8 29 -2 71q7 43 33 66q28 24 73 17z" />
    <glyph glyph-name="glyph216" unicode="&#xf9;" horiz-adv-x="596" 
d="M312 732q-26 -54 -56 -159q-26 -86 -43 -192q-14 -93 -4.5 -145.5t49.5 -7.5q27 32 62 84.5t64 108.5t53 108.5t41 89.5q12 27 29.5 76.5t31.5 78.5q29 66 64 9.5t10 -110.5q-26 -57 -50 -162q-32 -128 -36 -216q0 -32 25 -7q33 32 123 183t123 201q11 15 21.5 1
t-18.5 -65q-57 -115 -144.5 -262.5t-152.5 -218.5q-66 -70 -94 15q-28 73 -15 184q4 21 1 23.5t-12 -12.5q-15 -24 -40.5 -64.5t-51.5 -82.5q-36 -55 -60 -84t-40 -24q-76 19 -107 97q-29 69 -17 154q10 57 25.5 113t42.5 128q23 59 42.5 107.5t51.5 123.5q22 64 65 24
q41 -42 17 -97zM293 1230h10q15 -7 101 -137q100 -119 102 -141l-5 -4h-10q-81 0 -290 181l-10 31q0 41 102 70z" />
    <glyph glyph-name="glyph217" unicode="&#xfa;" horiz-adv-x="596" 
d="M312 732q-26 -54 -56 -159q-26 -86 -43 -192q-14 -93 -4.5 -145.5t49.5 -7.5q27 32 62 84.5t64 108.5t53 108.5t41 89.5q12 27 29.5 76.5t31.5 78.5q29 66 64 9.5t10 -110.5q-26 -57 -50 -162q-32 -128 -36 -216q0 -32 25 -7q33 32 123 183t123 201q11 15 21.5 1
t-18.5 -65q-57 -115 -144.5 -262.5t-152.5 -218.5q-66 -70 -94 15q-28 73 -15 184q4 21 1 23.5t-12 -12.5q-15 -24 -40.5 -64.5t-51.5 -82.5q-36 -55 -60 -84t-40 -24q-76 19 -107 97q-29 69 -17 154q10 57 25.5 113t42.5 128q23 59 42.5 107.5t51.5 123.5q22 64 65 24
q41 -42 17 -97zM738 1173q104 -36 104 -81q-137 -107 -416 -157l-10 15z" />
    <glyph glyph-name="uni1EE7" unicode="&#x1ee7;" horiz-adv-x="596" 
d="M312 732q-26 -54 -56 -159q-26 -86 -43 -192q-14 -93 -4.5 -145.5t49.5 -7.5q27 32 62 84.5t64 108.5t53 108.5t41 89.5q12 27 29.5 76.5t31.5 78.5q29 66 64 9.5t10 -110.5q-26 -57 -50 -162q-32 -128 -36 -216q0 -32 25 -7q33 32 123 183t123 201q11 15 21.5 1
t-18.5 -65q-57 -115 -144.5 -262.5t-152.5 -218.5q-66 -70 -94 15q-28 73 -15 184q4 21 1 23.5t-12 -12.5q-15 -24 -40.5 -64.5t-51.5 -82.5q-36 -55 -60 -84t-40 -24q-76 19 -107 97q-29 69 -17 154q10 57 25.5 113t42.5 128q23 59 42.5 107.5t51.5 123.5q22 64 65 24
q41 -42 17 -97zM440 1001q11 11 72.5 50t71.5 59q45 55 12 73t-66.5 16t-63 -12t-48.5 -15q-27 10 -15.5 27t46.5 38q20 11 60.5 22t82.5 15q42 3 76 -5.5t42 -35.5q9 -29 -6.5 -57.5t-42.5 -55.5t-61 -55.5t-59 -49.5q-49 -42 -52.5 -72.5t-10.5 -41.5q-5 -8 -16 -2t-17 20
q-8 13 -15.5 38t10.5 44z" />
    <glyph glyph-name="utilde" unicode="&#x169;" horiz-adv-x="596" 
d="M312 732q-26 -54 -56 -159q-26 -86 -43 -192q-14 -93 -4.5 -145.5t49.5 -7.5q27 32 62 84.5t64 108.5t53 108.5t41 89.5q12 27 29.5 76.5t31.5 78.5q29 66 64 9.5t10 -110.5q-26 -57 -50 -162q-32 -128 -36 -216q0 -32 25 -7q33 32 123 183t123 201q11 15 21.5 1
t-18.5 -65q-57 -115 -144.5 -262.5t-152.5 -218.5q-66 -70 -94 15q-28 73 -15 184q4 21 1 23.5t-12 -12.5q-15 -24 -40.5 -64.5t-51.5 -82.5q-36 -55 -60 -84t-40 -24q-76 19 -107 97q-29 69 -17 154q10 57 25.5 113t42.5 128q23 59 42.5 107.5t51.5 123.5q22 64 65 24
q41 -42 17 -97zM558 1048q169 -31 213 -22l20 4q23 4 52 44l10 2l17 -11q15 -92 -126 -142l-35 -2q-222 39 -265 31q-23 -5 -84 -61l-16 7l-1 5q44 121 151 142l9 2q35 6 55 1z" />
    <glyph glyph-name="uni1EE5" unicode="&#x1ee5;" horiz-adv-x="596" 
d="M312 732q-26 -54 -56 -159q-26 -86 -43 -192q-14 -93 -4.5 -145.5t49.5 -7.5q27 32 62 84.5t64 108.5t53 108.5t41 89.5q12 27 29.5 76.5t31.5 78.5q29 66 64 9.5t10 -110.5q-26 -57 -50 -162q-32 -128 -36 -216q0 -32 25 -7q33 32 123 183t123 201q11 15 21.5 1
t-18.5 -65q-57 -115 -144.5 -262.5t-152.5 -218.5q-66 -70 -94 15q-28 73 -15 184q4 21 1 23.5t-12 -12.5q-15 -24 -40.5 -64.5t-51.5 -82.5q-36 -55 -60 -84t-40 -24q-76 19 -107 97q-29 69 -17 154q10 57 25.5 113t42.5 128q23 59 42.5 107.5t51.5 123.5q22 64 65 24
q41 -42 17 -97zM307 33q36 -8 40 -37q3 -25 -16 -61q-19 -34 -46 -58q-29 -26 -49 -27q-25 -2 -33 29q-8 29 -2 71q7 43 33 66q28 24 73 17z" />
    <glyph glyph-name="uhorn" unicode="&#x1b0;" horiz-adv-x="596" 
d="M312 732q-26 -54 -56 -159q-26 -86 -43 -192q-14 -93 -4.5 -145.5t49.5 -7.5q27 32 62 84.5t64 108.5t53 108.5t41 89.5q12 27 29.5 76.5t31.5 78.5q29 66 64 9.5t10 -110.5q-26 -57 -50 -162q-32 -128 -36 -216q0 -32 25 -7q33 32 123 183t123 201q11 15 21.5 1
t-18.5 -65q-57 -115 -144.5 -262.5t-152.5 -218.5q-66 -70 -94 15q-28 73 -15 184q4 21 1 23.5t-12 -12.5q-15 -24 -40.5 -64.5t-51.5 -82.5q-36 -55 -60 -84t-40 -24q-76 19 -107 97q-29 69 -17 154q10 57 25.5 113t42.5 128q23 59 42.5 107.5t51.5 123.5q22 64 65 24
q41 -42 17 -97zM755 919q31 -7 36 -38q2 -28 -14 -64q-14 -32 -40 -62q-11 -13 -70.5 -80t-68.5 -68q-20 -1 -27 30q-3 15 44 94t50 101q6 45 28 69q24 26 62 18z" />
    <glyph glyph-name="uni1EEB" unicode="&#x1eeb;" horiz-adv-x="596" 
d="M293 1230h10q15 -7 101 -137q100 -119 102 -141l-5 -4h-10q-81 0 -290 181l-10 31q0 41 102 70zM589 608q-13 -42 -26 -97q-32 -128 -36 -216q0 -32 25 -7q33 32 123 183t123 201q11 15 21.5 1t-18.5 -65q-57 -115 -144.5 -262.5t-152.5 -218.5q-66 -70 -94 15
q-28 73 -15 184q4 21 1 23.5t-12 -12.5q-15 -24 -40.5 -64.5t-51.5 -82.5q-36 -55 -60 -84t-40 -24q-76 19 -107 97q-29 69 -17 154q10 57 25.5 113t42.5 128q23 59 42.5 107.5t51.5 123.5q22 64 65 24q41 -42 17 -97q-26 -54 -56 -159q-26 -86 -43 -192
q-14 -93 -4.5 -145.5t49.5 -7.5q27 32 62 84.5t64 108.5t53 108.5t41 89.5q12 27 29.5 76.5t31.5 78.5q29 66 64 10q13 -22 18 -43q41 70 44 91q6 45 28 69q24 26 62 18q31 -7 36 -38q2 -28 -14 -64q-14 -32 -40 -62q-11 -13 -70.5 -80t-68.5 -68q-5 0 -9 1z" />
    <glyph glyph-name="uni1EE9" unicode="&#x1ee9;" horiz-adv-x="596" 
d="M738 1173q104 -36 104 -81q-137 -107 -416 -157l-10 15zM589 608q-13 -42 -26 -97q-32 -128 -36 -216q0 -32 25 -7q33 32 123 183t123 201q11 15 21.5 1t-18.5 -65q-57 -115 -144.5 -262.5t-152.5 -218.5q-66 -70 -94 15q-28 73 -15 184q4 21 1 23.5t-12 -12.5
q-15 -24 -40.5 -64.5t-51.5 -82.5q-36 -55 -60 -84t-40 -24q-76 19 -107 97q-29 69 -17 154q10 57 25.5 113t42.5 128q23 59 42.5 107.5t51.5 123.5q22 64 65 24q41 -42 17 -97q-26 -54 -56 -159q-26 -86 -43 -192q-14 -93 -4.5 -145.5t49.5 -7.5q27 32 62 84.5t64 108.5
t53 108.5t41 89.5q12 27 29.5 76.5t31.5 78.5q29 66 64 10q13 -22 18 -43q41 70 44 91q6 45 28 69q24 26 62 18q31 -7 36 -38q2 -28 -14 -64q-14 -32 -40 -62q-11 -13 -70.5 -80t-68.5 -68q-5 0 -9 1z" />
    <glyph glyph-name="uni1EED" unicode="&#x1eed;" horiz-adv-x="596" 
d="M440 1001q11 11 72.5 50t71.5 59q45 55 12 73t-66.5 16t-63 -12t-48.5 -15q-27 10 -15.5 27t46.5 38q20 11 60.5 22t82.5 15q42 3 76 -5.5t42 -35.5q9 -29 -6.5 -57.5t-42.5 -55.5t-61 -55.5t-59 -49.5q-49 -42 -52.5 -72.5t-10.5 -41.5q-5 -8 -16 -2t-17 20
q-8 13 -15.5 38t10.5 44zM589 608q-13 -42 -26 -97q-32 -128 -36 -216q0 -32 25 -7q33 32 123 183t123 201q11 15 21.5 1t-18.5 -65q-57 -115 -144.5 -262.5t-152.5 -218.5q-66 -70 -94 15q-28 73 -15 184q4 21 1 23.5t-12 -12.5q-15 -24 -40.5 -64.5t-51.5 -82.5
q-36 -55 -60 -84t-40 -24q-76 19 -107 97q-29 69 -17 154q10 57 25.5 113t42.5 128q23 59 42.5 107.5t51.5 123.5q22 64 65 24q41 -42 17 -97q-26 -54 -56 -159q-26 -86 -43 -192q-14 -93 -4.5 -145.5t49.5 -7.5q27 32 62 84.5t64 108.5t53 108.5t41 89.5q12 27 29.5 76.5
t31.5 78.5q29 66 64 10q13 -22 18 -43q41 70 44 91q6 45 28 69q24 26 62 18q31 -7 36 -38q2 -28 -14 -64q-14 -32 -40 -62q-11 -13 -70.5 -80t-68.5 -68q-5 0 -9 1z" />
    <glyph glyph-name="uni1EEF" unicode="&#x1eef;" horiz-adv-x="596" 
d="M558 1084q169 -31 213 -22l20 4q23 4 52 44l10 2l17 -11q15 -92 -126 -142l-35 -2q-222 39 -265 31q-23 -5 -84 -61l-16 7l-1 5q44 121 151 142l9 2q35 6 55 1zM589 608q-13 -42 -26 -97q-32 -128 -36 -216q0 -32 25 -7q33 32 123 183t123 201q11 15 21.5 1t-18.5 -65
q-57 -115 -144.5 -262.5t-152.5 -218.5q-66 -70 -94 15q-28 73 -15 184q4 21 1 23.5t-12 -12.5q-15 -24 -40.5 -64.5t-51.5 -82.5q-36 -55 -60 -84t-40 -24q-76 19 -107 97q-29 69 -17 154q10 57 25.5 113t42.5 128q23 59 42.5 107.5t51.5 123.5q22 64 65 24q41 -42 17 -97
q-26 -54 -56 -159q-26 -86 -43 -192q-14 -93 -4.5 -145.5t49.5 -7.5q27 32 62 84.5t64 108.5t53 108.5t41 89.5q12 27 29.5 76.5t31.5 78.5q29 66 64 10q13 -22 18 -43q41 70 44 91q6 45 28 69q24 26 62 18q31 -7 36 -38q2 -28 -14 -64q-14 -32 -40 -62q-11 -13 -70.5 -80
t-68.5 -68q-5 0 -9 1z" />
    <glyph glyph-name="uni1EF1" unicode="&#x1ef1;" horiz-adv-x="596" 
d="M307 33q36 -8 40 -37q3 -25 -16 -61q-19 -34 -46 -58q-29 -26 -49 -27q-25 -2 -33 29q-8 29 -2 71q7 43 33 66q28 24 73 17zM589 608q-13 -42 -26 -97q-32 -128 -36 -216q0 -32 25 -7q33 32 123 183t123 201q11 15 21.5 1t-18.5 -65q-57 -115 -144.5 -262.5
t-152.5 -218.5q-66 -70 -94 15q-28 73 -15 184q4 21 1 23.5t-12 -12.5q-15 -24 -40.5 -64.5t-51.5 -82.5q-36 -55 -60 -84t-40 -24q-76 19 -107 97q-29 69 -17 154q10 57 25.5 113t42.5 128q23 59 42.5 107.5t51.5 123.5q22 64 65 24q41 -42 17 -97q-26 -54 -56 -159
q-26 -86 -43 -192q-14 -93 -4.5 -145.5t49.5 -7.5q27 32 62 84.5t64 108.5t53 108.5t41 89.5q12 27 29.5 76.5t31.5 78.5q29 66 64 10q13 -22 18 -43q41 70 44 91q6 45 28 69q24 26 62 18q31 -7 36 -38q2 -28 -14 -64q-14 -32 -40 -62q-11 -13 -70.5 -80t-68.5 -68
q-5 0 -9 1z" />
    <glyph glyph-name="ohorn" unicode="&#x1a1;" horiz-adv-x="619" 
d="M238 618q-59 -187 -35 -305q22 -103 97 -116q75 -12 149 70q82 88 121 252q4 18 -9 15q-59 -14 -100 -4q-50 13 -78 54q-52 73 6 165q50 77 141 118q14 5 14 21q3 58 -33 59t-86 -41q-51 -42 -104 -117.5t-83 -170.5zM592 661q4 59 -7 94q-13 33 -37 20
q-105 -58 -116 -137q-12 -82 148 -19q8 3 10 18.5t2 23.5zM675 675q-3 -15 10 -7q73 39 144 83q25 15 27 -16q0 -17 -53 -62q-57 -51 -130 -93q-12 -6 -16 -20q-15 -64 -47 -146t-83 -154q-51 -73 -120.5 -124t-157.5 -54q-84 -3 -135 62.5t-60 170.5t28.5 235t131.5 256
q112 149 236 183q124 33 153 -80q5 -27 11 -27q12 -2 22 -9q26 -23 36 -73q10 -52 3 -125zM811 1039q31 -7 36 -38q2 -28 -14 -64q-14 -32 -40 -62q-11 -13 -70.5 -80t-68.5 -68q-20 -1 -27 30q-3 15 44 94t50 101q6 45 28 69q24 26 62 18z" />
    <glyph glyph-name="uni1EDD" unicode="&#x1edd;" horiz-adv-x="619" 
d="M238 618q-59 -187 -35 -305q22 -103 97 -116q75 -12 149 70q82 88 121 252q4 18 -9 15q-59 -14 -100 -4q-50 13 -78 54q-52 73 6 165q50 77 141 118q14 5 14 21q3 58 -33 59t-86 -41q-51 -42 -104 -117.5t-83 -170.5zM592 661q4 59 -7 94q-13 33 -37 20
q-105 -58 -116 -137q-12 -82 148 -19q8 3 10 18.5t2 23.5zM434 1301h10q15 -7 101 -137q100 -119 102 -141l-5 -4h-10q-81 0 -290 181l-10 31q0 41 102 70zM678 747q1 -33 -3 -72q-3 -15 10 -7q73 39 144 83q25 15 27 -16q0 -17 -53 -62q-57 -51 -130 -93q-12 -6 -16 -20
q-15 -64 -47 -146t-83 -154q-51 -73 -120.5 -124t-157.5 -54q-84 -3 -135 62.5t-60 170.5t28.5 235t131.5 256q112 149 236 183q124 33 153 -80q5 -27 11 -27q12 -2 22 -9q16 -14 26 -38q4 8 9 16q47 79 50 101q6 45 28 69q24 26 62 18q31 -7 36 -38q2 -28 -14 -64
q-14 -32 -40 -62q-11 -13 -70 -80q-29 -32 -45 -48z" />
    <glyph glyph-name="uni1EDB" unicode="&#x1edb;" horiz-adv-x="619" 
d="M238 618q-59 -187 -35 -305q22 -103 97 -116q75 -12 149 70q82 88 121 252q4 18 -9 15q-59 -14 -100 -4q-50 13 -78 54q-52 73 6 165q50 77 141 118q14 5 14 21q3 58 -33 59t-86 -41q-51 -42 -104 -117.5t-83 -170.5zM592 661q4 59 -7 94q-13 33 -37 20
q-105 -58 -116 -137q-12 -82 148 -19q8 3 10 18.5t2 23.5zM738 1272q104 -36 104 -81q-137 -107 -416 -157l-10 15zM678 747q1 -33 -3 -72q-3 -15 10 -7q73 39 144 83q25 15 27 -16q0 -17 -53 -62q-57 -51 -130 -93q-12 -6 -16 -20q-15 -64 -47 -146t-83 -154
q-51 -73 -120.5 -124t-157.5 -54q-84 -3 -135 62.5t-60 170.5t28.5 235t131.5 256q112 149 236 183q124 33 153 -80q5 -27 11 -27q12 -2 22 -9q16 -14 26 -38q4 8 9 16q47 79 50 101q6 45 28 69q24 26 62 18q31 -7 36 -38q2 -28 -14 -64q-14 -32 -40 -62q-11 -13 -70 -80
q-29 -32 -45 -48z" />
    <glyph glyph-name="uni1EDF" unicode="&#x1edf;" horiz-adv-x="619" 
d="M238 618q-59 -187 -35 -305q22 -103 97 -116q75 -12 149 70q82 88 121 252q4 18 -9 15q-59 -14 -100 -4q-50 13 -78 54q-52 73 6 165q50 77 141 118q14 5 14 21q3 58 -33 59t-86 -41q-51 -42 -104 -117.5t-83 -170.5zM592 661q4 59 -7 94q-13 33 -37 20
q-105 -58 -116 -137q-12 -82 148 -19q8 3 10 18.5t2 23.5zM625 1078q11 11 72.5 50t71.5 59q45 55 12 73t-66.5 16t-63 -12t-48.5 -15q-27 10 -15.5 27t46.5 38q20 11 60.5 22t82.5 15q42 3 76 -5.5t42 -35.5q9 -29 -6.5 -57.5t-42.5 -55.5t-61 -55.5t-59 -49.5
q-49 -42 -52.5 -72.5t-10.5 -41.5q-5 -8 -16 -2t-17 20q-8 13 -15.5 38t10.5 44zM678 747q1 -33 -3 -72q-3 -15 10 -7q73 39 144 83q25 15 27 -16q0 -17 -53 -62q-57 -51 -130 -93q-12 -6 -16 -20q-15 -64 -47 -146t-83 -154q-51 -73 -120.5 -124t-157.5 -54
q-84 -3 -135 62.5t-60 170.5t28.5 235t131.5 256q112 149 236 183q124 33 153 -80q5 -27 11 -27q12 -2 22 -9q16 -14 26 -38q4 8 9 16q47 79 50 101q6 45 28 69q24 26 62 18q31 -7 36 -38q2 -28 -14 -64q-14 -32 -40 -62q-11 -13 -70 -80q-29 -32 -45 -48z" />
    <glyph glyph-name="uni1EE1" unicode="&#x1ee1;" horiz-adv-x="619" 
d="M238 618q-59 -187 -35 -305q22 -103 97 -116q75 -12 149 70q82 88 121 252q4 18 -9 15q-59 -14 -100 -4q-50 13 -78 54q-52 73 6 165q50 77 141 118q14 5 14 21q3 58 -33 59t-86 -41q-51 -42 -104 -117.5t-83 -170.5zM592 661q4 59 -7 94q-13 33 -37 20
q-105 -58 -116 -137q-12 -82 148 -19q8 3 10 18.5t2 23.5zM550 1196q169 -31 213 -22l20 4q23 4 52 44l10 2l17 -11q15 -92 -126 -142l-35 -2q-222 39 -265 31q-23 -5 -84 -61l-16 7l-1 5q44 121 151 142l9 2q35 6 55 1zM678 747q1 -33 -3 -72q-3 -15 10 -7q73 39 144 83
q25 15 27 -16q0 -17 -53 -62q-57 -51 -130 -93q-12 -6 -16 -20q-15 -64 -47 -146t-83 -154q-51 -73 -120.5 -124t-157.5 -54q-84 -3 -135 62.5t-60 170.5t28.5 235t131.5 256q112 149 236 183q124 33 153 -80q5 -27 11 -27q12 -2 22 -9q16 -14 26 -38q4 8 9 16q47 79 50 101
q6 45 28 69q24 26 62 18q31 -7 36 -38q2 -28 -14 -64q-14 -32 -40 -62q-11 -13 -70 -80q-29 -32 -45 -48z" />
    <glyph glyph-name="uni1EE3" unicode="&#x1ee3;" horiz-adv-x="619" 
d="M238 618q-59 -187 -35 -305q22 -103 97 -116q75 -12 149 70q82 88 121 252q4 18 -9 15q-59 -14 -100 -4q-50 13 -78 54q-52 73 6 165q50 77 141 118q14 5 14 21q3 58 -33 59t-86 -41q-51 -42 -104 -117.5t-83 -170.5zM592 661q4 59 -7 94q-13 33 -37 20
q-105 -58 -116 -137q-12 -82 148 -19q8 3 10 18.5t2 23.5zM208 33q36 -8 40 -37q3 -25 -16 -61q-19 -34 -46 -58q-29 -26 -49 -27q-25 -2 -33 29q-8 29 -2 71q7 43 33 66q28 24 73 17zM678 747q1 -33 -3 -72q-3 -15 10 -7q73 39 144 83q25 15 27 -16q0 -17 -53 -62
q-57 -51 -130 -93q-12 -6 -16 -20q-15 -64 -47 -146t-83 -154q-51 -73 -120.5 -124t-157.5 -54q-84 -3 -135 62.5t-60 170.5t28.5 235t131.5 256q112 149 236 183q124 33 153 -80q5 -27 11 -27q12 -2 22 -9q16 -14 26 -38q4 8 9 16q47 79 50 101q6 45 28 69q24 26 62 18
q31 -7 36 -38q2 -28 -14 -64q-14 -32 -40 -62q-11 -13 -70 -80q-29 -32 -45 -48z" />
    <glyph glyph-name="ygrave" unicode="&#x1ef3;" horiz-adv-x="529" 
d="M658 765q-41 -85 -111 -295q-69 -204 -130 -429q-31 -112 -58 -221.5t-45 -204.5q-41 -207 -31 -288q4 -39 -26 -38q-20 2 -50 20q-32 20 -59 48.5t-27 45.5q-1 42 29 153t77 255q46 145 101.5 306.5t105.5 305.5q3 11 1 21.5t-19 -16.5q-36 -57 -70.5 -112.5
t-65.5 -100.5q-71 -102 -98 -122q-28 -22 -79 23q-55 47 -67 115q-10 60 13 141.5t57 161.5q33 79 67.5 143.5t49.5 89.5q13 25 40 9t37 -52q7 -27 -21 -109t-40 -121q-20 -66 -36 -132t-14 -109q0 -30 19 -6q19 22 54.5 71.5t78.5 111.5q42 62 87 128.5t84 123.5
q42 63 62 106q9 21 18 37q13 26 46 -4t20 -56zM278 1153h10q15 -7 101 -137q100 -119 102 -141l-5 -4h-10q-81 0 -290 181l-10 31q0 41 102 70z" />
    <glyph glyph-name="glyph234" unicode="&#xfd;" horiz-adv-x="529" 
d="M658 765q-41 -85 -111 -295q-69 -204 -130 -429q-31 -112 -58 -221.5t-45 -204.5q-41 -207 -31 -288q4 -39 -26 -38q-20 2 -50 20q-32 20 -59 48.5t-27 45.5q-1 42 29 153t77 255q46 145 101.5 306.5t105.5 305.5q3 11 1 21.5t-19 -16.5q-36 -57 -70.5 -112.5
t-65.5 -100.5q-71 -102 -98 -122q-28 -22 -79 23q-55 47 -67 115q-10 60 13 141.5t57 161.5q33 79 67.5 143.5t49.5 89.5q13 25 40 9t37 -52q7 -27 -21 -109t-40 -121q-20 -66 -36 -132t-14 -109q0 -30 19 -6q19 22 54.5 71.5t78.5 111.5q42 62 87 128.5t84 123.5
q42 63 62 106q9 21 18 37q13 26 46 -4t20 -56zM710 1109q104 -36 104 -81q-137 -107 -416 -157l-10 15z" />
    <glyph glyph-name="uni1EF7" unicode="&#x1ef7;" horiz-adv-x="529" 
d="M658 765q-41 -85 -111 -295q-69 -204 -130 -429q-31 -112 -58 -221.5t-45 -204.5q-41 -207 -31 -288q4 -39 -26 -38q-20 2 -50 20q-32 20 -59 48.5t-27 45.5q-1 42 29 153t77 255q46 145 101.5 306.5t105.5 305.5q3 11 1 21.5t-19 -16.5q-36 -57 -70.5 -112.5
t-65.5 -100.5q-71 -102 -98 -122q-28 -22 -79 23q-55 47 -67 115q-10 60 13 141.5t57 161.5q33 79 67.5 143.5t49.5 89.5q13 25 40 9t37 -52q7 -27 -21 -109t-40 -121q-20 -66 -36 -132t-14 -109q0 -30 19 -6q19 22 54.5 71.5t78.5 111.5q42 62 87 128.5t84 123.5
q42 63 62 106q9 21 18 37q13 26 46 -4t20 -56zM419 952q11 11 72.5 50t71.5 59q45 55 12 73t-66.5 16t-63 -12t-48.5 -15q-27 10 -15.5 27t46.5 38q20 11 60.5 22t82.5 15q42 3 76 -5.5t42 -35.5q9 -29 -6.5 -57.5t-42.5 -55.5t-61 -55.5t-59 -49.5q-49 -42 -52.5 -72.5
t-10.5 -41.5q-5 -8 -16 -2t-17 20q-8 13 -15.5 38t10.5 44z" />
    <glyph glyph-name="uni1EF9" unicode="&#x1ef9;" horiz-adv-x="529" 
d="M658 765q-41 -85 -111 -295q-69 -204 -130 -429q-31 -112 -58 -221.5t-45 -204.5q-41 -207 -31 -288q4 -39 -26 -38q-20 2 -50 20q-32 20 -59 48.5t-27 45.5q-1 42 29 153t77 255q46 145 101.5 306.5t105.5 305.5q3 11 1 21.5t-19 -16.5q-36 -57 -70.5 -112.5
t-65.5 -100.5q-71 -102 -98 -122q-28 -22 -79 23q-55 47 -67 115q-10 60 13 141.5t57 161.5q33 79 67.5 143.5t49.5 89.5q13 25 40 9t37 -52q7 -27 -21 -109t-40 -121q-20 -66 -36 -132t-14 -109q0 -30 19 -6q19 22 54.5 71.5t78.5 111.5q42 62 87 128.5t84 123.5
q42 63 62 106q9 21 18 37q13 26 46 -4t20 -56zM537 1006q169 -31 213 -22l20 4q23 4 52 44l10 2l17 -11q15 -92 -126 -142l-35 -2q-222 39 -265 31q-23 -5 -84 -61l-16 7l-1 5q44 121 151 142l9 2q35 6 55 1z" />
    <glyph glyph-name="uni1EF5" unicode="&#x1ef5;" horiz-adv-x="529" 
d="M658 765q-41 -85 -111 -295q-69 -204 -130 -429q-31 -112 -58 -221.5t-45 -204.5q-41 -207 -31 -288q4 -39 -26 -38q-20 2 -50 20q-32 20 -59 48.5t-27 45.5q-1 42 29 153t77 255q46 145 101.5 306.5t105.5 305.5q3 11 1 21.5t-19 -16.5q-36 -57 -70.5 -112.5
t-65.5 -100.5q-71 -102 -98 -122q-28 -22 -79 23q-55 47 -67 115q-10 60 13 141.5t57 161.5q33 79 67.5 143.5t49.5 89.5q13 25 40 9t37 -52q7 -27 -21 -109t-40 -121q-20 -66 -36 -132t-14 -109q0 -30 19 -6q19 22 54.5 71.5t78.5 111.5q42 62 87 128.5t84 123.5
q42 63 62 106q9 21 18 37q13 26 46 -4t20 -56zM540 33q36 -8 40 -37q3 -25 -16 -61q-19 -34 -46 -58q-29 -26 -49 -27q-25 -2 -33 29q-8 29 -2 71q7 43 33 66q28 24 73 17z" />
    <glyph glyph-name="divide" unicode="&#xf7;" horiz-adv-x="1706" 
 />
    <glyph glyph-name="ugrave" horiz-adv-x="582" 
 />
    <glyph glyph-name="uacute" horiz-adv-x="580" 
 />
    <glyph glyph-name="yacute" horiz-adv-x="629" 
 />
    <glyph glyph-name="Ccaron" unicode="&#x10c;" horiz-adv-x="1274" 
 />
    <glyph glyph-name="ccaron" unicode="&#x10d;" horiz-adv-x="922" 
 />
    <glyph glyph-name="Dslash" unicode="&#x110;" horiz-adv-x="1179" 
d="M466 762q-31 -110 -61 -219q-38 -134 -71 -254q-17 -58 -30 -124.5t15 -124.5q28 -60 105 -49q69 11 163 75q149 116 319.5 305t271.5 381t86.5 351t-235.5 215q-169 42 -362 29q-43 -3 -52 -41q-29 -106 -64 -233q-25 -89 -50 -182q81 -2 153 -9q68 -7 148 -54.5
t5 -47.5q-168 -3 -301 -15q-21 -2 -40 -3zM371 893q72 214 134 391q7 21 6.5 33t-31.5 6q-60 -12 -113.5 -25.5t-98.5 -26.5q-45 -14 -82 -26t-64 -20q-30 -10 -59.5 9.5t-49.5 49.5q-20 28 -26.5 56t8.5 36q106 48 254 83q144 34 306 47q29 1 41 35q51 138 58 144
q51 49 42 -55q-5 -27 -21 -94q-7 -25 26 -25q77 0 155 -6q397 -31 478 -236t-12 -463q-95 -258 -292.5 -507.5t-358.5 -366.5q-142 -104 -259.5 -126t-150.5 122q-15 54 -31 -3q-38 -129 -36 -125q-16 -31 -62.5 24.5t-46.5 97.5q-1 42 40.5 191t104.5 349q44 140 94 290
q-8 -1 -15 -1q-84 -5 -164.5 45.5t-53.5 63.5q62 30 241 33h39z" />
    <glyph glyph-name="dcroat" unicode="&#x111;" horiz-adv-x="603" 
d="M560 764q13 34 -20 40q-27 3 -50 1q-25 -3 -56 -17q-49 -24 -104.5 -99.5t-95.5 -165.5q-42 -90 -58 -175t14 -128q8 -12 65 63.5t120 169.5q54 80 98 148.5t54 83.5q9 15 18 39zM860 1244q62 1 113 1q56 0 91 -1t38 -3q27 -25 -23 -45q-9 -3 -51.5 -10t-105.5 -16
q-43 -5 -92 -12q-64 -188 -132 -399q-80 -248 -145.5 -457.5t-68.5 -227.5q-5 -35 -55 12q-50 41 -52 80q-1 24 17.5 93t49.5 167q4 12 -2 18t-15 -9q-33 -54 -67.5 -110.5t-67.5 -102.5q-76 -108 -119 -119q-47 -13 -80 25t-49.5 87t-16.5 82q-6 113 30.5 211.5t96.5 173.5
q123 156 267 168q80 6 139 4q31 -2 45 35q43 120 85 232q3 10 7 20q-37 -4 -74 -9q-80 -9 -156 -18t-135 -16q-60 -6 -96.5 -9.5t-37.5 -3.5q-16 2 6 50t42 60q14 8 58 15t106 13q62 5 136.5 9t150.5 7q19 1 38 1q16 43 31 81q73 191 83 201q17 17 54.5 -13t28.5 -59
q-5 -10 -72 -206z" />
    <glyph glyph-name="quoteleft" unicode="&#x2018;" horiz-adv-x="310" 
d="M169 1083q-12 -20 -33 -5q-98 72 -60 162t133 207q19 24 36 49.5t38 52.5q12 15 26.5 6.5t11.5 -18.5q-4 -12 -72.5 -93.5t-38.5 -147.5q20 -41 71 -62q16 -6 4 -28t-30 -37q-30 -26 -50.5 -44t-35.5 -42z" />
    <glyph glyph-name="quoteright" unicode="&#x2019;" horiz-adv-x="310" 
d="M218 1547q12 20 33 5q98 -72 60 -162t-133 -207q-19 -24 -36 -49.5t-38 -52.5q-12 -15 -26.5 -6.5t-11.5 18.5q4 12 72.5 93.5t38.5 147.5q-20 41 -71 62q-16 6 -4 28t30 37q30 26 50.5 44t35.5 42z" />
    <glyph glyph-name="quotedblleft" unicode="&#x201c;" horiz-adv-x="615" 
d="M406 1075q-12 -18 -33 -4q-99 72 -61 161.5t133 207.5q19 24 36 49.5t38 51.5q12 15 27 6.5t12 -17.5q-4 -12 -72.5 -93.5t-38.5 -147.5q19 -42 70 -63q17 -6 5 -28t-30 -37q-30 -26 -50.5 -44t-35.5 -42zM175 1075q-11 -19 -33 -4q-98 72 -59.5 161.5t132.5 207.5
q19 24 36 49.5t38 51.5q12 15 26.5 6.5t11.5 -17.5q-3 -12 -71.5 -93.5t-38.5 -147.5q19 -42 70 -63q17 -6 5 -28t-30 -37q-30 -26 -51 -44t-36 -42z" />
    <glyph glyph-name="quotedblright" unicode="&#x201d;" horiz-adv-x="615" 
d="M224 1540q12 18 33 4q99 -72 61 -161.5t-133 -207.5q-19 -24 -36 -49.5t-38 -51.5q-12 -15 -27 -6.5t-12 17.5q4 12 72.5 93.5t38.5 147.5q-19 42 -70 63q-17 6 -5 28t30 37q30 26 50.5 44t35.5 42zM455 1540q11 19 33 4q98 -72 59.5 -161.5t-132.5 -207.5
q-19 -24 -36 -49.5t-38 -51.5q-12 -15 -26.5 -6.5t-11.5 17.5q3 12 71.5 93.5t38.5 147.5q-19 42 -70 63q-17 6 -5 28t30 37q30 26 51 44t36 42z" />
    <glyph glyph-name="ellipsis" unicode="&#x2026;" horiz-adv-x="1017" 
d="M228 357q43 -11 48 -53q4 -37 -19 -90q-23 -49 -55 -85q-35 -38 -59 -39q-29 -2 -39 42q-10 43 -2 104q8 63 39 96q33 36 87 25zM518 357q43 -11 48 -53q4 -37 -19 -90q-23 -49 -55 -85q-35 -38 -59 -39q-29 -2 -39 42q-10 43 -2 104q8 63 39 96q33 36 87 25zM818 357
q43 -11 48 -53q4 -37 -19 -90q-23 -49 -55 -85q-35 -38 -59 -39q-29 -2 -39 42q-10 43 -2 104q8 63 39 96q33 36 87 25z" />
    </font>
</defs>
</svg>
