<?xml version="1.0" standalone="no"?>
<!DOCTYPE svg PUBLIC "-//W3C//DTD SVG 1.1//EN" "http://www.w3.org/Graphics/SVG/1.1/DTD/svg11.dtd" >
<svg xmlns="http://www.w3.org/2000/svg" xmlns:xlink="http://www.w3.org/1999/xlink" version="1.1">
<metadata>
Created by FontForge 20160407 at Fri Oct  7 08:39:44 2016
 By Jimmy Warting
(c) 2008 Microsoft Corporation. All rights reserved.
</metadata>
<defs>
<font id="Tunga" horiz-adv-x="1424" >
  <font-face 
    font-family="Tunga"
    font-weight="400"
    font-stretch="normal"
    units-per-em="2048"
    panose-1="2 11 5 2 4 2 4 2 2 3"
    ascent="1638"
    descent="-410"
    x-height="828"
    cap-height="1143"
    bbox="-1234 -1356 2983 2168"
    underline-thickness="64"
    underline-position="-352"
    unicode-range="U+000D-25CC"
  />
<missing-glyph horiz-adv-x="1024" 
d="M128 0v2048h768v-2048h-768zM256 128h512v1792h-512v-1792z" />
    <glyph glyph-name=".notdef" horiz-adv-x="1024" 
d="M128 0v2048h768v-2048h-768zM256 128h512v1792h-512v-1792z" />
    <glyph glyph-name="uni200B" unicode="&#x200b;" horiz-adv-x="0" 
 />
    <glyph glyph-name="uni000D" unicode="&#xd;" horiz-adv-x="640" 
 />
    <glyph glyph-name="space" unicode=" " horiz-adv-x="640" 
 />
    <glyph glyph-name="space" unicode="&#xa0;" horiz-adv-x="640" 
 />
    <glyph glyph-name="exclam" unicode="!" horiz-adv-x="580" 
d="M389 1544l-32 -1144h-136l-32 1144h200zM391 100q0 -41 -29.5 -70.5t-70.5 -29.5t-70.5 29.5t-29.5 70.5t29.5 70.5t70.5 29.5t70.5 -29.5t29.5 -70.5z" />
    <glyph glyph-name="quotedbl" unicode="&#x22;" horiz-adv-x="640" 
d="M519 1166q0 -163 -68 -234q-68 71 -68 234q0 31 20 59.5t48 28.5t48 -28.5t20 -59.5zM257 1166q0 -163 -68 -234q-68 71 -68 234q0 31 20 59.5t48 28.5t48 -28.5t20 -59.5z" />
    <glyph glyph-name="numbersign" unicode="#" horiz-adv-x="1090" 
d="M999 723l-25 -124h-179l-55 -210h180l-26 -123h-185l-63 -266h-129l64 266h-188l-64 -266h-128l63 266h-172l25 123h178l56 210h-181l25 124h187l63 266h129l-64 -266h188l64 266h128l-63 -266h172zM670 600h-191l-58 -211h191z" />
    <glyph glyph-name="percent" unicode="%" horiz-adv-x="1040" 
d="M496 976q0 -78 -52 -136.5t-130 -58.5q-77 0 -129 60q-50 57 -50 135t51 137.5t128 59.5t131 -60q51 -59 51 -137zM933 1120l-732 -1188l-93 68l734 1188zM912 165q0 -78 -52 -136.5t-130 -58.5q-77 0 -129 60q-50 57 -50 135t51 137.5t128 59.5t131 -60q51 -59 51 -137z
M390 976q0 35 -21 63t-55 28q-33 0 -54 -28t-21 -63t20 -61q21 -29 55 -29t56 29q20 26 20 61zM806 165q0 35 -21 63t-55 28q-33 0 -54 -28t-21 -63t20 -61q21 -29 55 -29t56 29q20 26 20 61z" />
    <glyph glyph-name="ampersand" unicode="&#x26;" horiz-adv-x="1050" 
d="M950 91l-105 -84l-105 134q-96 -141 -306 -141q-155 0 -249 106q-85 97 -85 238q0 208 168 317q-40 44 -72 109q-36 73 -36 124q0 101 75 166q71 62 174 62q107 0 179.5 -65.5t72.5 -162.5q0 -76 -52 -149q-47 -67 -117 -107l217 -246q31 75 31 224v9h124
q0 -211 -59 -354zM523 894q0 101 -117 101q-110 0 -110 -101q0 -32 36 -90q32 -51 64 -82q49 24 87 71q40 52 40 101zM644 265l-276 307q-132 -91 -132 -229q0 -76 51 -123q57 -52 161 -52q124 0 196 97z" />
    <glyph glyph-name="quotesingle" unicode="'" horiz-adv-x="360" 
d="M248 1166q0 -163 -68 -234q-68 71 -68 234q0 31 20 59.5t48 28.5t48 -28.5t20 -59.5z" />
    <glyph glyph-name="parenleft" unicode="(" horiz-adv-x="540" 
d="M394 1541l70 -70q-260 -406 -260 -910q-4 -511 260 -910l-70 -70q-315 390 -318 980q0 319 92 567q67 182 226 413z" />
    <glyph glyph-name="parenright" unicode=")" horiz-adv-x="540" 
d="M373 1128q91 -248 91 -567q-3 -590 -318 -980l-70 70q264 399 260 910q0 504 -260 910l70 70q159 -231 227 -413z" />
    <glyph glyph-name="asterisk" unicode="*" horiz-adv-x="860" 
d="M753 496h-204l141 -136l-55 -55l-142 137v-203h-128v201l-141 -138l-56 55l143 139h-206v128h206l-143 139l56 55l141 -138v201h128v-203l142 140l55 -55l-141 -139h204v-128z" />
    <glyph glyph-name="plus" unicode="+" horiz-adv-x="860" 
d="M105 496v128h260v257h128v-257h260v-128h-260v-257h-128v257h-260z" />
    <glyph glyph-name="comma" unicode="," horiz-adv-x="552" 
d="M379 71q0 -92 -38 -166q-46 -87 -128 -100v80q39 8 64 46q22 35 22 73q-14 -4 -28 -4q-42 0 -70 31t-28 69q0 41 29.5 70.5t70.5 29.5q50 0 80 -41q26 -36 26 -88z" />
    <glyph glyph-name="hyphen" unicode="-" horiz-adv-x="860" 
d="M753 497h-648v127h648v-127z" />
    <glyph glyph-name="period" unicode="." horiz-adv-x="552" 
d="M376 100q0 -41 -29.5 -70.5t-70.5 -29.5t-70.5 29.5t-29.5 70.5t29.5 70.5t70.5 29.5t70.5 -29.5t29.5 -70.5z" />
    <glyph glyph-name="slash" unicode="/" horiz-adv-x="1020" 
d="M923 1120l-732 -1188l-93 68l734 1188z" />
    <glyph glyph-name="zero" unicode="0" horiz-adv-x="1062" 
d="M974 554q0 -226 -130 -390t-313 -164t-313 164t-130 390t130 390t313 164t313 -164t130 -390zM838 554q0 173 -85 293q-88 125 -222 125t-222 -125q-85 -120 -85 -293t85 -293q88 -125 222 -125t222 125q85 120 85 293z" />
    <glyph glyph-name="one" unicode="1" horiz-adv-x="568" 
d="M406 0h-136v936l-155 -133l-73 86l228 199h136v-1088z" />
    <glyph glyph-name="two" unicode="2" horiz-adv-x="944" 
d="M856 0h-768v149q0 114 158 228q146 92 293 184q158 107 158 202q0 209 -245 209q-172 0 -228 -132h-136q16 84 104 166q110 102 260 102q181 0 281 -90t100 -255q0 -145 -154 -269q-20 -16 -286 -184q-154 -97 -154 -174h617v-136z" />
    <glyph glyph-name="three" unicode="3" horiz-adv-x="924" 
d="M836 347q0 -138 -87 -233q-104 -114 -297 -114q-150 0 -260 102q-88 82 -104 166h136q56 -132 228 -132q123 0 190 64q58 54 58 133q0 153 -248 153v136q248 0 248 154q0 79 -57 133q-68 63 -191 63q-172 0 -228 -132h-136q16 84 104 166q110 102 260 102q192 0 296 -111
q88 -94 88 -231q0 -64 -50 -134q-47 -66 -92 -77q46 -10 93 -74q49 -68 49 -134z" />
    <glyph glyph-name="four" unicode="4" horiz-adv-x="1084" 
d="M996 269h-195v-269h-136v269h-577v143l568 676h145v-683h195v-136zM665 405v491l-414 -491h414z" />
    <glyph glyph-name="five" unicode="5" horiz-adv-x="886" 
d="M804 364q0 -172 -124 -273q-112 -91 -275 -91q-196 0 -323 125l78 100q104 -89 249 -89q115 0 190 68q69 65 69 154q0 102 -94 169q-107 75 -304 75q-29 0 -88 -1.5t-88 -1.5v489h681v-136h-545v-230q574 0 574 -358z" />
    <glyph glyph-name="six" unicode="6" horiz-adv-x="977" 
d="M889 347q0 -137 -97 -238q-103 -109 -261 -109q-199 0 -328 185q-115 165 -115 369q0 226 129 390t314 164q160 0 285 -133l-91 -90q-75 87 -194 87q-142 0 -229 -132q-78 -120 -78 -286q0 -26 3 -48q109 183 314 183q166 0 263 -109q85 -97 85 -233zM753 346
q0 80 -59 141q-64 66 -162 66q-86 0 -163 -48q-80 -49 -117 -132q32 -102 108 -168q79 -69 171 -69q103 0 165 66q57 60 57 144z" />
    <glyph glyph-name="seven" unicode="7" horiz-adv-x="798" 
d="M789 964q-248 -210 -349 -390q-121 -216 -121 -518q0 -19 4 -56h-136q-4 36 -4 56q0 522 419 896h-513v136h700v-124z" />
    <glyph glyph-name="eight" unicode="8" horiz-adv-x="944" 
d="M856 339q0 -136 -94 -231q-106 -108 -291 -108q-184 0 -290 107q-93 95 -93 231q0 89 44.5 162.5t123.5 105.5q-112 61 -112 203q0 118 82 203q92 96 246 96t246 -96q82 -85 82 -203q0 -142 -112 -203q79 -32 125 -107q43 -72 43 -160zM664 817q0 62 -55 108.5t-137 46.5
t-137 -46.5t-55 -108.5q0 -124 192 -166q192 42 192 166zM720 338q0 74 -59 128q-67 61 -189 75q-122 -14 -189 -75q-59 -54 -59 -128q0 -81 66 -139q71 -63 182 -63t182 63q66 58 66 139z" />
    <glyph glyph-name="nine" unicode="9" horiz-adv-x="977" 
d="M889 554q0 -248 -124.5 -401t-318.5 -153q-160 0 -285 133l91 90q75 -87 194 -87q307 0 307 418q0 26 -3 48q-109 -183 -314 -183q-166 0 -263 109q-85 97 -85 233q0 137 97 238q103 109 261 109q199 0 328 -185q115 -165 115 -369zM725 735q-32 102 -108 168
q-79 69 -171 69q-103 0 -165 -66q-57 -60 -57 -144q0 -80 59 -141q64 -66 162 -66q86 0 164.5 48.5t115.5 131.5z" />
    <glyph glyph-name="colon" unicode=":" horiz-adv-x="552" 
d="M376 529q0 -41 -29.5 -70.5t-70.5 -29.5t-70.5 29.5t-29.5 70.5t29.5 70.5t70.5 29.5t70.5 -29.5t29.5 -70.5zM376 100q0 -41 -29.5 -70.5t-70.5 -29.5t-70.5 29.5t-29.5 70.5t29.5 70.5t70.5 29.5t70.5 -29.5t29.5 -70.5z" />
    <glyph glyph-name="semicolon" unicode=";" horiz-adv-x="552" 
d="M373 529q0 -41 -29.5 -70.5t-70.5 -29.5t-70.5 29.5t-29.5 70.5t29.5 70.5t70.5 29.5t70.5 -29.5t29.5 -70.5zM379 71q0 -92 -38 -166q-46 -87 -128 -100v80q39 8 64 46q22 35 22 73q-14 -4 -28 -4q-42 0 -70 31t-28 69q0 41 29.5 70.5t70.5 29.5q50 0 80 -41
q26 -36 26 -88z" />
    <glyph glyph-name="less" unicode="&#x3c;" horiz-adv-x="933" 
d="M862 239l-34 -142l-757 362v104l757 362l34 -142l-572 -272z" />
    <glyph glyph-name="equal" unicode="=" horiz-adv-x="860" 
d="M753 615h-648v128h648v-128zM753 377h-648v128h648v-128z" />
    <glyph glyph-name="greater" unicode="&#x3e;" horiz-adv-x="933" 
d="M862 459l-757 -362l-34 142l572 272l-572 272l34 140l757 -360v-104z" />
    <glyph glyph-name="question" unicode="?" horiz-adv-x="920" 
d="M772 1234q0 -109 -74 -200q-68 -68 -136 -135q-73 -75 -73 -142v-355h-136v355q0 115 73 201l136 126q74 71 74 151q0 88 -68 136q-51 37 -108 37q-76 0 -125.5 -51.5t-49.5 -124.5h-136q0 131 89 221.5t223 90.5q115 0 206 -77q105 -88 105 -233zM521 100
q0 -41 -29.5 -70.5t-70.5 -29.5q-42 0 -71 29.5t-29 70.5t29 70.5t71 29.5q41 0 70.5 -29.5t29.5 -70.5z" />
    <glyph glyph-name="at" unicode="@" horiz-adv-x="1500" 
d="M1381 489q0 -152 -61 -263q-74 -137 -214 -137q-136 0 -197 137q-74 -80 -191 -80q-137 0 -220 105q-77 97 -77 237q0 141 77 236q82 102 220 102q103 0 162 -56v41h133v-460q0 -134 93 -134q76 0 117 105q30 78 30 167q0 206 -148 352.5t-355 146.5
q-208 0 -353.5 -145.5t-145.5 -353.5t146 -354.5t353 -146.5v-132q-261 0 -446 186t-185 447q0 260 185.5 445.5t445.5 185.5q261 0 446 -185t185 -446zM872 494q0 202 -154 202q-77 0 -119 -69q-36 -58 -36 -139q0 -212 155 -212q154 0 154 218z" />
    <glyph glyph-name="bracketleft" unicode="[" horiz-adv-x="630" 
d="M526 -424h-421v1968h421v-123h-274v-1721h274v-124z" />
    <glyph glyph-name="backslash" unicode="\" horiz-adv-x="1020" 
d="M923 0l-93 -68l-732 1188l91 68z" />
    <glyph glyph-name="bracketright" unicode="]" horiz-adv-x="630" 
d="M526 -424h-421v124h274v1721h-274v123h421v-1968z" />
    <glyph glyph-name="asciicircum" unicode="^" horiz-adv-x="668" 
d="M604 1634l-79 -90l-191 150l-190 -150l-80 90l270 208z" />
    <glyph glyph-name="underscore" unicode="_" horiz-adv-x="824" 
d="M824 -512h-824v128h824v-128z" />
    <glyph glyph-name="braceleft" unicode="{" horiz-adv-x="850" 
d="M91 628q135 -1 208 124q62 106 62 268q0 524 300 524h98v-122h-80q-100 0 -148 -122q-37 -93 -37 -234q0 -195 -26 -293q-44 -160 -171 -213q127 -53 171 -213q26 -98 26 -293q0 -141 37 -234q48 -122 148 -122h80v-122h-98q-300 0 -300 524q0 162 -62 268
q-73 125 -208 124v136z" />
    <glyph glyph-name="bar" unicode="|" horiz-adv-x="320" 
d="M218 0h-116v1545h116v-1545z" />
    <glyph glyph-name="braceright" unicode="}" horiz-adv-x="850" 
d="M759 492q-135 1 -208 -124q-62 -106 -62 -268q0 -524 -300 -524h-98v122h80q100 0 148 122q37 93 37 234q0 195 26 293q44 160 171 213q-127 53 -171 213q-26 98 -26 293q0 141 -37 234q-48 122 -148 122h-80v122h98q300 0 300 -524q0 -162 62 -268q73 -125 208 -124
v-136z" />
    <glyph glyph-name="asciitilde" unicode="~" horiz-adv-x="1060" 
d="M972 691q0 -166 -39 -243q-55 -108 -205 -108q-106 0 -174 69q-19 23 -104 137q-54 72 -114 72q-90 0 -117 -102q-12 -44 -15 -174h-116v42q0 166 37 242q55 110 207 110q101 0 172 -63q33 -40 109 -143q55 -72 112 -72q89 0 116 102q11 42 14 173h117v-42z" />
    <glyph glyph-name="ellipsis" unicode="&#x2026;" horiz-adv-x="1300" 
d="M1110 100q0 -41 -29.5 -70.5t-70.5 -29.5t-70.5 29.5t-29.5 70.5t29.5 70.5t70.5 29.5t70.5 -29.5t29.5 -70.5zM750 100q0 -41 -29.5 -70.5t-70.5 -29.5t-70.5 29.5t-29.5 70.5t29.5 70.5t70.5 29.5t70.5 -29.5t29.5 -70.5zM390 100q0 -41 -29.5 -70.5t-70.5 -29.5
t-70.5 29.5t-29.5 70.5t29.5 70.5t70.5 29.5t70.5 -29.5t29.5 -70.5z" />
    <glyph glyph-name="endash" unicode="&#x2013;" horiz-adv-x="860" 
d="M754 497h-648v127h648v-127z" />
    <glyph glyph-name="emdash" unicode="&#x2014;" horiz-adv-x="1520" 
d="M1408 497h-1296v127h1296v-127z" />
    <glyph glyph-name="divide" unicode="&#xf7;" horiz-adv-x="860" 
d="M530 821q0 -41 -29.5 -70.5t-70.5 -29.5t-70.5 29.5t-29.5 70.5t29.5 70.5t70.5 29.5t70.5 -29.5t29.5 -70.5zM754 497h-649v127h649v-127zM530 310q0 -41 -29.5 -70.5t-70.5 -29.5t-70.5 29.5t-29.5 70.5t29.5 70.5t70.5 29.5t70.5 -29.5t29.5 -70.5z" />
    <glyph glyph-name="minus" unicode="&#x2212;" horiz-adv-x="824" 
d="M736 508h-648v136h648v-136z" />
    <glyph glyph-name="multiply" unicode="&#xd7;" horiz-adv-x="860" 
d="M246 287l-90 91l183 182l-183 182l90 91l184 -182l184 182l90 -91l-183 -182l183 -182l-90 -91l-184 182z" />
    <glyph glyph-name="uni0C82" unicode="&#xc82;" horiz-adv-x="1104" 
d="M1016 526q0 -218 -136 -372t-328 -154t-328 154t-136 372t136 372t328 154t328 -154t136 -372zM880 542q0 155 -96 264.5t-232 109.5t-232 -109.5t-96 -264.5t96 -264.5t232 -109.5t232 109.5t96 264.5z" />
    <glyph glyph-name="uni0C83" unicode="&#xc83;" horiz-adv-x="592" 
d="M504 780q0 -84 -61 -144t-147 -60t-147 60t-61 144t61 144t147 60t147 -60t61 -144zM504 220q0 -91 -61 -155t-147 -64t-147 64t-61 155t61 155.5t147 64.5t147 -64.5t61 -155.5zM368 780q0 28 -21 48t-51 20t-51 -20t-21 -48t21 -48t51 -20t51 20t21 48zM368 236
q0 28 -21 48t-51 20t-51 -20t-21 -48t21 -48t51 -20t51 20t21 48z" />
    <glyph glyph-name="uni0C85" unicode="&#xc85;" 
d="M1336 606q0 -286 -170 -448q-166 -158 -454 -158t-454 158q-170 162 -170 448q0 165 68 328q86 206 226 206q95 0 158 -78q60 -73 60 -170t-60 -170q-63 -78 -158 -78q-92 0 -151 64q-7 -53 -7 -109q0 -197 148 -318q139 -113 340 -113t340 113q148 121 148 318
q0 139 -24 241q-40 164 -134 164q-38 0 -61 -39q-20 -33 -20 -73q0 -46 27 -92q31 -52 74 -56v-136h-422v136h237q-53 61 -53 148q0 97 60 170q63 78 158 78q160 0 238 -198q56 -144 56 -336zM463 892q0 40 -20 73q-23 39 -61 39q-46 0 -83 -58q-30 -47 -39 -101
q32 -65 112 -65q39 0 66 38q25 34 25 74z" />
    <glyph glyph-name="uni0C86" unicode="&#xc86;" 
d="M1336 416q0 -204 -190 -319q-161 -97 -379 -97q-292 0 -479 154q-200 166 -200 452q0 165 68 328q85 206 226 206q95 0 158 -78q60 -73 60 -170t-60 -170q-63 -78 -158 -78q-91 0 -149 64q-9 -52 -9 -109q0 -215 172 -331q149 -100 374 -100q154 0 271 48q159 64 159 195
q0 89 -59 143t-149 54h-352v136h239q-56 55 -56 150q0 105 61.5 175.5t164.5 70.5t172 -71t69 -175q0 -151 -109 -218q155 -106 155 -260zM1146 894q0 44 -24 76q-27 34 -70 34t-68 -33t-25 -77q0 -104 93 -148q94 30 94 148zM463 892q0 40 -20 73q-23 39 -61 39
q-46 0 -83 -58q-30 -47 -39 -101q32 -65 112 -65q39 0 66 38q25 34 25 74z" />
    <glyph glyph-name="uni0C87" unicode="&#xc87;" 
d="M1336 748q0 -249 -205 -477q104 -92 204 -192l-104 -99q-60 66 -187 193q-175 -173 -356 -173q-113 0 -192 70q-82 72 -82 184q0 119 84 189q78 65 200 65q98 0 178 -42q48 -24 150 -105q174 172 174 393q0 106 -51 174q-57 76 -159 76q-88 0 -149 -62.5t-61 -151.5v-126
h-136v126q0 87 -61.5 150.5t-148.5 63.5q-88 0 -148.5 -62.5t-60.5 -150.5q0 -153 158 -208l-38 -132q-114 33 -185 127t-71 213q0 145 100.5 247t244.5 102q184 0 278 -144q40 65 121 106q77 38 157 38q161 0 257 -118q89 -110 89 -274zM936 268q-113 107 -238 107
q-52 0 -96 -26q-52 -30 -52 -78q0 -49 52 -78q43 -25 96 -25q135 0 238 100z" />
    <glyph glyph-name="uni0C88" unicode="&#xc88;" horiz-adv-x="1896" 
d="M1808 746q0 -183 -170 -232q72 -104 72 -223q0 -125 -63 -202q-67 -81 -189 -89l-8 168q140 4 140 130q0 99 -92 210h-216q-19 -211 -170 -358q-154 -150 -363 -150q-215 0 -369 147q-150 145 -170 361h-122v136h124q33 205 183 340h-220v136h909q52 0 88 47q32 43 32 97
q0 51 -28 93q-32 48 -80 51l11 136q102 -10 169 -94q64 -81 64 -186q0 -104 -69.5 -186.5t-172.5 -93.5q158 -142 179 -340h145q-25 47 -25 102q0 93 56 163q59 75 150 75q93 0 149 -68t56 -170zM1688 747q0 117 -85 117q-38 0 -62 -35t-24 -85q0 -80 45 -100q126 0 126 103
zM1144 644q-8 92 -62.5 176.5t-135.5 132.5q-52 31 -72 31h-259q-11 0 -54 -23q-85 -46 -145.5 -134t-67.5 -183h796zM1140 508h-790q25 -147 138 -243.5t261 -96.5q144 0 257 99q110 98 134 241z" />
    <glyph glyph-name="uni0C89" unicode="&#xc89;" horiz-adv-x="2152" 
d="M2064 543q0 -217 -94 -367q-110 -176 -312 -176q-174 0 -288 128q-110 124 -110 300q0 65 21 192t21 192q0 192 -213 192t-213 -192q0 -65 21 -192t21 -192q0 -180 -101 -300q-108 -128 -284 -128q-213 0 -336 178q-109 158 -109 383q0 180 66 355q85 224 228 224
q96 0 158 -71q58 -68 58 -166q0 -99 -57 -175q-63 -84 -159 -84q-91 0 -146 55q-12 -56 -12 -152q0 -152 83 -260q91 -119 238 -119q111 0 176 75q61 72 61 185q0 65 -21 192.5t-21 191.5q0 157 98 244q93 84 252 84q158 0 251 -84q97 -87 97 -244q0 -64 -21 -191.5
t-21 -192.5q0 -109 74.5 -184.5t183.5 -75.5q136 0 208 120q60 99 60 245q0 299 -222 543l122 64q242 -253 242 -597zM462 892q0 42 -19 74q-22 38 -61 38q-40 0 -76 -53q-32 -48 -45 -113q52 -58 121 -58q39 0 61 38q19 32 19 74z" />
    <glyph glyph-name="uni0C8A" unicode="&#xc8a;" horiz-adv-x="2600" 
d="M2512 629q0 -366 -252 -629l-104 104q214 235 214 535q0 146 -52 243q-66 122 -199 122q-213 0 -213 -192q0 -65 21 -192t21 -192q0 -176 -85 -295q-96 -133 -265 -133t-264 134q-84 118 -84 294q0 64 21 189.5t21 189.5q0 87 -57.5 142t-145.5 55q-93 0 -151 -52
q-62 -54 -62 -145q0 -64 21 -189.5t21 -189.5q0 -180 -101 -300q-108 -128 -284 -128q-214 0 -337 180q-108 158 -108 381q0 177 65 352q84 227 229 227q96 0 158 -71q58 -68 58 -166q0 -99 -57 -175q-63 -84 -159 -84q-95 0 -147 55q-11 -57 -11 -152q0 -152 83 -260
q91 -119 238 -119q111 0 176 76q61 71 61 184q0 64 -21 189.5t-21 189.5q0 150 101 243q98 90 249 90q144 0 241 -94.5t97 -238.5q0 -64 -21 -189.5t-21 -189.5q0 -110 48 -179q55 -81 160 -81q106 0 165 79q53 72 53 181q0 65 -21 192t-21 192q0 152 99 242q95 86 249 86
q199 0 304 -163q90 -138 90 -348zM462 892q0 42 -19 74q-22 38 -61 38q-45 0 -82 -63q-28 -47 -39 -103q51 -58 121 -58q39 0 61 38q19 32 19 74z" />
    <glyph glyph-name="uni0C8B" unicode="&#xc8b;" horiz-adv-x="2056" 
d="M1969 479q0 -103 -27 -191t-76 -152t-119 -100t-155 -36q-49 0 -96 15.5t-88.5 43t-75 65.5t-54.5 82q-18 -48 -48 -86t-69 -64.5t-85.5 -41t-97.5 -14.5q-53 0 -102.5 15.5t-92.5 44t-77 68t-54 88.5q-51 -109 -129 -162.5t-188 -53.5q-44 0 -88.5 17.5t-80.5 51
t-58.5 82t-22.5 109.5q0 55 19 100t53 76.5t81 49t102 17.5q26 0 56.5 -7.5t61 -20.5t57.5 -29.5t47 -35.5q3 27 3 57q0 167 -20 244q-15 -16 -38 -28t-50 -20t-55 -12t-54 -4q-44 0 -90.5 13t-85 42t-63 76t-24.5 115q0 60 24.5 106.5t62.5 78t85 47t91 15.5q80 -1 138 -35
t98 -90t64 -127.5t37 -147t17.5 -149t4.5 -132.5q0 -62 20 -115.5t56 -92.5t85.5 -61t108.5 -22q52 0 94.5 23t72 63.5t45.5 95.5t16 119q0 319 -247 515h-199v136h263q24 0 46 12.5t38.5 32.5t26 46.5t9.5 53.5t-8.5 52t-23 44.5t-34 32t-42.5 14.5l11 136
q50 -5 92.5 -29.5t74 -62t49 -86t17.5 -101.5q0 -178 -147 -254q212 -236 212 -532q0 -66 18 -123t51 -98.5t78.5 -65t101.5 -23.5q55 0 99.5 22.5t75.5 62.5t48 95.5t17 120.5q0 84 -15.5 163.5t-49.5 150t-88 130.5t-130 107l79 117q75 -33 140 -102.5t112 -159.5t71 -193
t18 -204zM509 857q-8 37 -25.5 64.5t-39.5 46t-47 27.5t-49 9q-18 0 -40.5 -4.5t-42.5 -17t-34 -34t-14 -55.5q0 -32 14 -53.5t34 -34.5t43 -18.5t40 -5.5q18 0 42.5 6t48.5 16.5t43.5 24.5t26.5 29zM350 367q-57 0 -93 -24t-36 -68q0 -57 30 -81.5t90 -25.5q58 -1 103.5 26
t74.5 78q-16 18 -37 35.5t-43.5 30.5t-45 21t-43.5 8z" />
    <glyph glyph-name="uni0C8C" unicode="&#xc8c;" 
d="M1336 796q0 -209 -182 -287q-13 -5 -339 -75q-182 -39 -182 -156q0 -51 46 -82q40 -28 93 -28q49 0 86 27q41 28 48 75l136 -10q-8 -112 -84.5 -186t-187.5 -74q-120 0 -196.5 79.5t-76.5 200.5q0 170 182 239q169 43 339 86q182 55 182 191q0 86 -63 147t-149 61
q-102 0 -158 -72q-49 -64 -49 -168h-136q0 103 -51 168q-55 72 -157 72q-88 0 -150.5 -62.5t-62.5 -150.5q0 -73 45 -130t116 -76l-39 -130q-113 29 -185.5 124t-72.5 212q0 146 101.5 247.5t247.5 101.5q178 0 277 -136q42 62 121 100q75 36 153 36q142 0 245 -101
t103 -243z" />
    <glyph glyph-name="uni0C8E" unicode="&#xc8e;" 
d="M1336 431q0 -93 -25 -172t-70.5 -136.5t-109.5 -90t-142 -32.5q-175 0 -277 138q-101 -138 -273 -138q-75 0 -139.5 29t-111.5 79.5t-73.5 118.5t-26.5 147q0 60 19 122t57.5 113t95.5 83t134 32q42 0 75 -8.5t57 -20.5t40.5 -25t26.5 -22l-88 -113q-6 5 -17.5 14
t-26.5 17.5t-32 14.5t-33 6q-39 0 -70.5 -17t-54 -45t-35 -63.5t-12.5 -72.5q0 -45 16.5 -85.5t44.5 -70.5t66 -47.5t81 -17.5q48 0 87 17t67 46.5t43.5 69.5t15.5 87h136q0 -46 15 -86t42.5 -70t65.5 -47t85 -17q49 0 88 21t66.5 57.5t42 87t14.5 110.5q0 255 -202 414
q-187 146 -448 146h-46l46 136q326 0 550 -188q236 -200 236 -521z" />
    <glyph glyph-name="uni0C8F" unicode="&#xc8f;" 
d="M1336 431q0 -93 -25 -172t-70.5 -136.5t-109.5 -90t-142 -32.5q-175 0 -277 138q-101 -138 -273 -138q-75 0 -139.5 29t-111.5 79.5t-73.5 118.5t-26.5 147q0 60 19 122t57.5 113t95.5 83t134 32q42 0 75 -8.5t57 -20.5t40.5 -25t26.5 -22l-88 -113q-6 5 -17.5 14
t-26.5 17.5t-32 14.5t-33 6q-39 0 -70.5 -17t-54 -45t-35 -63.5t-12.5 -72.5q0 -45 16.5 -85.5t44.5 -70.5t66 -47.5t81 -17.5q48 0 87 17t67 46.5t43.5 69.5t15.5 87h136q0 -46 15 -86t42.5 -70t65.5 -47t85 -17q49 0 88 21t66.5 57.5t42 87t14.5 110.5q0 255 -202 414
q-105 81 -231 114q-76 -85 -197 -85q-51 0 -96 18.5t-78.5 50.5t-53 76.5t-19.5 95.5q0 157 118 215l71 -114q-53 -38 -53 -95q0 -49 31.5 -80t80.5 -31q31 0 57.5 8.5t47.5 22.5t38 32t29 37q99 -20 190 -64t167 -107q236 -200 236 -521z" />
    <glyph glyph-name="uni0C90" unicode="&#xc90;" 
d="M1336 584q0 -231 -78 -385q-101 -199 -310 -199q-172 0 -271 136q-97 -136 -271 -136q-140 0 -229 95t-89 236q0 134 82 218t216 84q137 0 218 -83l-98 -106q-47 53 -120 53q-70 0 -116 -47t-46 -118q0 -76 54 -122q50 -42 128 -42q88 0 143 45q60 49 60 135h136
q0 -85 60 -134q56 -46 143 -46q141 0 206 156q47 112 47 277q0 150 -52 260q-68 143 -201 143q-85 0 -144 -63t-59 -149h-136q0 87 -58 149.5t-145 62.5q-76 0 -129 -51t-53 -127q0 -45 13 -75l-122 -62q-27 45 -27 137q0 138 90 226t228 88q166 0 271 -136q81 136 265 136
q201 0 307 -187q87 -152 87 -369z" />
    <glyph glyph-name="uni0C92" unicode="&#xc92;" 
d="M1336 381q0 -80 -26.5 -149.5t-73.5 -121t-110.5 -81t-137.5 -29.5q-174 0 -276 138q-101 -138 -273 -138q-76 0 -140.5 27.5t-111 76.5t-73 116t-26.5 145q0 53 9 96.5t30.5 79.5t56 66t85.5 56q54 28 85 56t47 54.5t20.5 49.5t4.5 41q0 63 -36 101.5t-99 38.5
q-26 0 -49.5 -8.5t-40.5 -23.5t-27 -36t-10 -46q0 -46 20 -68l-116 -68q-40 52 -40 140q0 52 21 97t57 78t84 52t103 19q61 0 111 -21t85 -59t54 -90t19 -113q0 -72 -21.5 -121t-56 -84t-76.5 -60t-83 -49q-12 -7 -29.5 -20t-33 -33t-27 -47t-11.5 -62q0 -45 16 -83.5
t44 -67.5t66 -45.5t82 -16.5q48 0 87 17t67 46.5t43.5 69.5t15.5 87h136q0 -46 14.5 -86t41.5 -70t65.5 -47t85.5 -17q44 0 82.5 17t67.5 46t45.5 67.5t16.5 82.5q0 35 -12 68t-33.5 60.5t-50.5 48t-63 31.5l37 128q54 -15 101.5 -48.5t82 -78.5t54.5 -99t20 -110z" />
    <glyph glyph-name="uni0C93" unicode="&#xc93;" 
d="M1336 381q0 -80 -26.5 -149.5t-73.5 -121t-110.5 -81t-137.5 -29.5q-174 0 -276 138q-101 -138 -273 -138q-76 0 -140.5 27.5t-111 76.5t-73 116t-26.5 145q0 53 9 96.5t30.5 79.5t56 66t85.5 56q54 28 85 56t47 54.5t20.5 49.5t4.5 41q0 63 -36 101.5t-99 38.5
q-26 0 -49.5 -8.5t-40.5 -23.5t-27 -36t-10 -46q0 -46 20 -68l-116 -68q-40 52 -40 140q0 49 18.5 91.5t50 74.5t74.5 52.5t93 25.5q-58 85 -58 167q0 52 19.5 96t55 75.5t84.5 49.5t108 18l21 -136q-152 0 -152 -109q0 -94 86 -191h-2q64 -35 100 -100.5t36 -150.5
q0 -72 -21.5 -121t-56 -84t-76.5 -60t-83 -49q-12 -7 -29.5 -20t-33 -33t-27 -47t-11.5 -62q0 -45 16 -83.5t44 -67.5t66 -45.5t82 -16.5q48 0 87 17t67 46.5t43.5 69.5t15.5 87h136q0 -46 14.5 -86t41.5 -70t65.5 -47t85.5 -17q44 0 82.5 17t67.5 46t45.5 67.5t16.5 82.5
q0 35 -12 68t-33.5 60.5t-50.5 48t-63 31.5l37 128q54 -15 101.5 -48.5t82 -78.5t54.5 -99t20 -110z" />
    <glyph glyph-name="uni0C94" unicode="&#xc94;" 
d="M1336 381q0 -80 -26.5 -149.5t-73.5 -121t-110.5 -81t-137.5 -29.5q-174 0 -276 138q-101 -138 -273 -138q-76 0 -140.5 27.5t-111 76.5t-73 116t-26.5 145q0 53 9 96.5t30.5 79.5t56 66t85.5 56q54 28 85 56t47 54.5t20.5 49.5t4.5 41q0 63 -36 101.5t-99 38.5
q-26 0 -49.5 -8.5t-40.5 -23.5t-27 -36t-10 -46q0 -46 20 -68l-116 -68q-40 52 -40 140q0 52 21 97t57 78t84 52t103 19h5q207 28 207 142q0 28 -16 51.5t-44.5 40t-66.5 25.5t-83 9h-245v136h909q81 0 150 -30t119.5 -82.5t79 -124t28.5 -154.5q0 -67 -19.5 -122t-55 -94.5
t-85.5 -61.5t-111 -22q-60 0 -109.5 16.5t-84.5 46.5t-54 73.5t-19 97.5v33h135v-24q0 -107 128 -107q32 0 58 13t44 36t27.5 54t9.5 67q0 53 -18.5 98.5t-50.5 79t-76 52.5t-96 19h-382q64 -46 64 -125q0 -72 -41.5 -123t-124.5 -86q42 -38 64.5 -93.5t22.5 -123.5
q0 -72 -21.5 -121t-56 -84t-76.5 -60t-83 -49q-12 -7 -29.5 -20t-33 -33t-27 -47t-11.5 -62q0 -45 16 -83.5t44 -67.5t66 -45.5t82 -16.5q48 0 87 17t67 46.5t43.5 69.5t15.5 87h136q0 -46 14.5 -86t41.5 -70t65.5 -47t85.5 -17q44 0 82.5 17t67.5 46t45.5 67.5t16.5 82.5
q0 35 -12 68t-33.5 60.5t-50.5 48t-63 31.5l37 128q54 -15 101.5 -48.5t82 -78.5t54.5 -99t20 -110z" />
    <glyph glyph-name="uni0C95" unicode="&#xc95;" horiz-adv-x="1160" 
d="M1077 1265q0 -117 -69 -197q-72 -84 -187 -84h-137v-168h388v-96h-207q207 -116 207 -315q0 -178 -161 -297q-147 -108 -331 -108t-331 108q-161 119 -161 297q0 100 71 188q62 78 160 127h-231v96h400v168h-400v136h733q54 0 88 47q32 43 32 98q0 51 -28 93
q-32 47 -80 50l11 136q102 -10 169 -94q64 -80 64 -185zM936 411q0 119 -125 187q-102 56 -231 56t-231 -56q-125 -68 -125 -187t125 -187q102 -56 231 -56t231 56q125 68 125 187z" />
    <glyph glyph-name="uni0C96" unicode="&#xc96;" horiz-adv-x="1496" 
d="M1408 497q0 -220 -100 -358.5t-260 -138.5q-177 0 -313 177q-125 -177 -336 -177q-143 0 -231 91q-80 82 -80 197q0 109 74 182q82 82 225 82q80 0 169 -36q99 -40 148 -103q20 56 20 142q0 182 -76 303q-19 -73 -79.5 -119.5t-137.5 -46.5q-93 0 -158.5 65.5
t-65.5 158.5q0 94 66 159t160 65q179 0 307 -192q120 -179 120 -398q0 -123 -51 -247q104 -135 230 -135q103 0 168 92.5t65 242.5q0 312 -266 528l92 109q137 -137 204 -252q106 -182 106 -391zM557 946q-47 58 -126 58q-36 0 -62 -26t-26 -62t26 -62t62 -26q111 0 126 118
zM640 285q-105 131 -254 131q-75 0 -121 -37q-41 -34 -41 -83q0 -52 47 -88q53 -40 144 -40q148 0 225 117z" />
    <glyph glyph-name="uni0C97" unicode="&#xc97;" horiz-adv-x="1288" 
d="M1205 1265q0 -117 -71 -197q-73 -84 -188 -84q214 -204 214 -544v-440h-136v440q0 197 -99 354q-115 182 -301 182t-301 -182q-99 -157 -99 -354v-440h-136v440q0 340 214 544h-214v136h861q54 0 88 47q32 43 32 98q0 51 -28 93q-31 47 -80 50l11 136q102 -10 169 -94
q64 -80 64 -185z" />
    <glyph glyph-name="uni0C98" unicode="&#xc98;" horiz-adv-x="1592" 
d="M1516 835q0 -55 -16.5 -101t-47 -80t-74 -56t-97.5 -29q55 -79 55 -192q0 -82 -25.5 -151t-72 -119.5t-111 -78.5t-142.5 -28q-173 1 -273 138q-101 -138 -273 -138q-75 0 -139.5 29t-111.5 79.5t-73.5 118.5t-26.5 147q0 60 19 122t57.5 113t95.5 83t134 32
q42 0 75 -8.5t57 -20.5t40.5 -25t26.5 -22l-88 -113q-6 5 -17.5 14t-26.5 17.5t-32 14.5t-33 6q-39 0 -70.5 -17t-54 -45t-35 -63.5t-12.5 -72.5q0 -45 16.5 -85.5t44.5 -70.5t66 -47.5t81 -17.5q48 0 87 17t67 46.5t43.5 69.5t15.5 87h136q0 -46 15 -86t42.5 -70t65.5 -47
t85 -17q49 0 88.5 17t66.5 46t41.5 69.5t14.5 87.5q0 45 -9 80.5t-30 65.5t-56 56.5t-87 53.5l60 120l78 -45q46 -24 85 -24q33 0 60.5 10t47.5 28t31 44t11 58q0 75 -59 113l82 98q102 -75 102 -211zM1307 1265q0 -57 -19.5 -108t-53 -89.5t-79.5 -61t-99 -22.5h-968v136
h963q25 0 47 12t38.5 32.5t25.5 46.5t9 54q0 27 -8.5 52t-23 44.5t-34 32t-42.5 14.5l11 136q49 -5 91.5 -29.5t74 -62t49.5 -85.5t18 -102zM808 -169q0 -43 -27 -73t-69 -30q-45 0 -70.5 29t-25.5 74q0 21 8.5 50.5t22 58.5t31 54t34.5 38q15 -11 32 -36.5t31.5 -55.5
t23.5 -59.5t9 -49.5zM808 712q0 -20 -7.5 -37t-21 -30.5t-31 -21t-36.5 -7.5q-20 0 -37 7.5t-30.5 21t-21 30.5t-7.5 37q0 19 7.5 36.5t21 31t30.5 21t37 7.5q19 0 36.5 -7.5t31 -21t21 -31t7.5 -36.5z" />
    <glyph glyph-name="uni0C99" unicode="&#xc99;" 
d="M1336 381q0 -80 -26.5 -149.5t-73.5 -121t-110.5 -81t-137.5 -29.5q-174 0 -276 138q-101 -138 -273 -138q-76 0 -140.5 27.5t-111 76.5t-73 116t-26.5 145q0 53 9 96.5t30.5 79.5t56 66t85.5 56q54 28 85 56t47 54.5t20.5 49.5t4.5 41q0 63 -36 101.5t-99 38.5
q-26 0 -49.5 -8.5t-40.5 -23.5t-27 -36t-10 -46q0 -46 20 -68l-116 -68q-40 52 -40 140q0 52 21 97t57 78t84 52t103 19q89 0 152.5 -43t92.5 -116q81 70 184.5 114.5t221.5 44.5q67 0 127 -21.5t105 -61.5t71.5 -95.5t26.5 -122.5h-136q0 82 -52 123.5t-136 41.5
q-63 0 -120.5 -15.5t-107.5 -42t-91 -62t-72 -74.5q-7 -58 -30.5 -99t-56.5 -71t-71.5 -52.5t-75.5 -44.5q-12 -7 -29.5 -20t-33 -33t-27 -47t-11.5 -62q0 -45 16 -83.5t44 -67.5t66 -45.5t82 -16.5q48 0 87 17t67 46.5t43.5 69.5t15.5 87h136q0 -46 14.5 -86t41.5 -70
t65.5 -47t85.5 -17q44 0 82.5 17t67.5 46t45.5 67.5t16.5 82.5q0 35 -12 68t-33.5 60.5t-50.5 48t-63 31.5l37 128q54 -15 101.5 -48.5t82 -78.5t54.5 -99t20 -110zM848 604q0 -40 -28 -68t-68 -28t-68 28t-28 68t28 68t68 28t68 -28t28 -68z" />
    <glyph glyph-name="uni0C9A" unicode="&#xc9a;" 
d="M1336 381q0 -80 -26.5 -149.5t-73.5 -121t-110.5 -81t-137.5 -29.5q-174 0 -276 138q-101 -138 -273 -138q-76 0 -140.5 27.5t-111 76.5t-73 116t-26.5 145q0 53 9 96.5t30.5 79.5t56 66t85.5 56q54 28 85 56t47 54.5t20.5 49.5t4.5 41q0 63 -36 101.5t-99 38.5
q-26 0 -49.5 -8.5t-40.5 -23.5t-27 -36t-10 -46q0 -46 20 -68l-116 -68q-40 52 -40 140q0 52 21 97t57 78t84 52t103 19q61 0 111 -21t85 -59t54 -90t19 -113q0 -72 -21.5 -121t-56 -84t-76.5 -60t-83 -49q-12 -7 -29.5 -20t-33 -33t-27 -47t-11.5 -62q0 -45 16 -83.5
t44 -67.5t66 -45.5t82 -16.5q48 0 87 17t67 46.5t43.5 69.5t15.5 87h136q0 -46 14.5 -86t41.5 -70t65.5 -47t85.5 -17q44 0 82.5 17t67.5 46t45.5 67.5t16.5 82.5q0 33 -10.5 64.5t-29 59t-44.5 49t-56 34.5h-270v136h246q21 0 41 11.5t35 30.5t24 43t9 50q0 20 -8.5 42
t-23.5 40.5t-34.5 30.5t-41.5 12h-247v136h306q22 0 42 13.5t35 34.5t23.5 46.5t8.5 50.5q0 22 -8.5 46.5t-23.5 45t-34.5 35t-41.5 17.5l11 136q48 -5 90 -30t74 -64t50.5 -88t18.5 -101q0 -144 -122 -233q62 -76 62 -173q0 -70 -35 -132h90v-136h-73q34 -45 53.5 -98
t19.5 -109z" />
    <glyph glyph-name="uni0C9B" unicode="&#xc9b;" 
d="M1341 1265q0 -87 -41 -157q-44 -74 -121 -106q157 -182 157 -440q0 -202 -92 -366q-110 -196 -296 -196q-146 0 -236 138q-90 -138 -234 -138q-186 0 -297 196q-93 164 -93 366q0 187 61 354q81 224 233 224q95 0 158 -78q60 -73 60 -170t-60 -170q-63 -78 -158 -78
q-91 0 -149 64q-9 -45 -9 -142q0 -144 52 -255q67 -143 194 -143q85 0 133 70q42 61 42 150h136q0 -89 42 -150q48 -70 133 -70q126 0 193 143q51 111 51 255q0 137 -52 260q-67 158 -184 158h-174v136h296q53 0 88 47q31 43 31 98q0 51 -28 93q-31 47 -80 50l11 136
q102 -10 169 -94q64 -80 64 -185zM808 -169q0 -43 -27 -73t-69 -30q-44 0 -70 29.5t-26 73.5q0 45 30.5 110.5t65.5 90.5q33 -24 64.5 -91t31.5 -110zM483 892q0 40 -31 76t-70 36q-79 0 -121 -166q58 -76 121 -76q47 0 76 43q25 38 25 87z" />
    <glyph glyph-name="uni0C9C" unicode="&#xc9c;" 
d="M1336 381q0 -80 -26.5 -149.5t-73.5 -121t-110.5 -81t-137.5 -29.5q-174 0 -276 138q-101 -138 -273 -138q-76 0 -140.5 27.5t-111 76.5t-73 116t-26.5 145q0 53 9 96.5t30.5 79.5t56 66t85.5 56q54 28 85 56t47 54.5t20.5 49.5t4.5 41q0 63 -36 101.5t-99 38.5
q-26 0 -49.5 -8.5t-40.5 -23.5t-27 -36t-10 -46q0 -46 20 -68l-116 -68q-40 52 -40 140q0 52 21 97t57 78t84 52t103 19q52 0 95.5 -15t77 -43t56 -66.5t32.5 -84.5q48 -29 105.5 -43t105.5 -14q221 0 221 128q0 46 -33 71t-81 25q-15 0 -52 -12l-52 126q47 22 108 22
q50 0 94.5 -18t78.5 -49.5t53.5 -74.5t19.5 -92q0 -62 -25 -111t-70.5 -83t-109.5 -51.5t-141 -17.5q-55 0 -116 9t-108 28q-12 -48 -36 -82.5t-55 -61t-66.5 -47t-69.5 -40.5q-12 -7 -29.5 -20t-33 -33t-27 -47t-11.5 -62q0 -45 16 -83.5t44 -67.5t66 -45.5t82 -16.5
q48 0 87 17t67 46.5t43.5 69.5t15.5 87h136q0 -46 14.5 -86t41.5 -70t65.5 -47t85.5 -17q44 0 82.5 17t67.5 46t45.5 67.5t16.5 82.5q0 35 -12 68t-33.5 60.5t-50.5 48t-63 31.5l37 128q54 -15 101.5 -48.5t82 -78.5t54.5 -99t20 -110z" />
    <glyph glyph-name="uni0C9D" unicode="&#xc9d;" horiz-adv-x="2258" 
d="M2170 471q0 -192 -96 -323q-107 -148 -292 -148q-202 0 -312 167q-111 -167 -306 -167q-199 0 -315 201q-117 -201 -330 -201q-193 0 -320 198q-111 173 -111 378q0 245 146 408h-146v136h708q54 0 88 47q32 43 32 98q0 51 -28 93q-31 47 -80 50l11 136q102 -10 169 -94
q64 -80 64 -185q0 -111 -67 -193q-72 -86 -181 -88q146 -163 146 -408q0 -81 -8 -131q-14 -83 -14 -64q0 -92 74 -154q70 -59 164 -59q120 0 189 92q61 83 61 207q0 366 -290 554l80 119q346 -245 346 -669q0 -17 -3.5 -51t-3.5 -51q0 -26 14 -59q27 -65 91 -104
q61 -38 134 -38q119 0 188 92q62 84 62 207q0 366 -284 554l71 119q349 -245 349 -669zM1566 -169q0 -43 -27 -73t-69 -30q-44 0 -70 29.5t-26 73.5q0 45 30.5 110.5t65.5 90.5q33 -24 64.5 -91t31.5 -110zM814 576q0 150 -69 268q-82 140 -221 140q-140 0 -226 -139
q-74 -119 -74 -269t74 -269q86 -139 226 -139q139 0 221 140q69 118 69 268z" />
    <glyph glyph-name="uni0C9E" unicode="&#xc9e;" horiz-adv-x="1824" 
d="M1736 846h-137q0 65 -46 111.5t-111 46.5q-105 0 -135 -89q29 -81 29 -167q0 -249 -205 -477q104 -92 204 -192l-104 -99q-60 66 -187 193q-176 -173 -356 -173q-113 0 -192 70q-82 72 -82 184q0 119 84 189q78 65 200 65q98 0 178 -42q45 -23 150 -105q174 172 174 393
q0 106 -51 174q-57 76 -159 76q-88 0 -149 -62.5t-61 -151.5v-126h-136v126q0 87 -61.5 150.5t-148.5 63.5q-88 0 -148.5 -62.5t-60.5 -150.5q0 -73 44 -132t114 -76l-38 -132q-114 33 -185 127t-71 213q0 145 100.5 247t244.5 102q184 0 278 -144q40 65 121 106
q77 38 157 38q144 0 235 -94q78 94 217 94q121 0 207.5 -86.5t86.5 -207.5zM936 268q-113 107 -238 107q-52 0 -96 -26q-52 -30 -52 -78q0 -49 52 -78q43 -25 96 -25q135 0 238 100z" />
    <glyph glyph-name="uni0C9F" unicode="&#xc9f;" 
d="M1336 374q0 -156 -97 -263q-99 -111 -254 -111q-172 0 -273 138q-101 -138 -273 -138q-155 0 -255 111q-96 107 -96 263q0 164 110 267q-99 75 -99 216q0 123 72 203t194 80q107 0 181 -73l-97 -97q-35 34 -84 34q-61 0 -97 -44q-33 -40 -33 -103q0 -101 83 -125
q30 -8 166 -8v-136h-111q-72 0 -113 -66q-36 -57 -36 -133q0 -90 59 -154q60 -67 149 -67q95 0 154 62.5t59 157.5h136q0 -95 58 -157.5t153 -62.5q89 0 149 67q59 64 59 154q0 77 -35 133q-42 66 -114 66h-111v136q136 0 166 8q83 24 83 125q0 63 -33 103q-36 44 -97 44
q-49 0 -84 -34l-97 97q74 73 181 73q122 0 194 -80t72 -203q0 -141 -99 -216q110 -103 110 -267z" />
    <glyph glyph-name="uni0CA0" unicode="&#xca0;" horiz-adv-x="1288" 
d="M1205 1265q0 -99 -53 -175q-57 -81 -151 -101q199 -168 199 -429q0 -231 -162.5 -395.5t-393.5 -164.5t-393.5 164.5t-162.5 395.5q0 256 193 424h-193v136h861q54 0 88 47q32 43 32 98q0 51 -28 93q-31 47 -80 50l11 136q102 -10 169 -94q64 -80 64 -185zM1052 576
q0 169 -119.5 288.5t-288.5 119.5t-288.5 -119.5t-119.5 -288.5t119.5 -288.5t288.5 -119.5t288.5 119.5t119.5 288.5zM740 588q0 -40 -28 -68t-68 -28t-68 28t-28 68t28 68t68 28t68 -28t28 -68z" />
    <glyph glyph-name="uni0CA1" unicode="&#xca1;" 
d="M1341 1265q0 -114 -69 -196q-74 -85 -186 -85q120 -112 120 -275q0 -32 -7 -62q63 -40 102 -126q35 -79 35 -160q0 -152 -103.5 -256.5t-255.5 -104.5q-163 0 -265 138q-102 -138 -264 -138q-165 0 -267 136q-93 124 -93 295q0 357 242 553h-242v136h997q54 0 88 47
q32 43 32 98q0 51 -28 93q-31 47 -80 50l11 136q102 -10 169 -94q64 -80 64 -185zM1200 351q0 123 -72 175q-55 -47 -124 -47q-57 0 -96 37t-39 93q0 47 35 88.5t82 41.5q59 0 94 -17q0 124 -121 198q-104 64 -236 64q-224 0 -364 -160q-135 -153 -135 -380q0 -112 49 -187
q57 -89 163 -89q92 0 150.5 63.5t58.5 156.5h136q0 -93 57.5 -156.5t149.5 -63.5q83 0 145 49q67 53 67 134z" />
    <glyph glyph-name="uni0CA2" unicode="&#xca2;" 
d="M1341 1265q0 -115 -69 -196q-74 -85 -186 -85q120 -113 120 -275q0 -32 -7 -62q63 -40 102 -126q35 -79 35 -160q0 -152 -103.5 -256.5t-255.5 -104.5q-163 0 -265 138q-102 -138 -264 -138q-165 0 -267 136q-93 124 -93 295q0 357 242 553h-242v136h997q54 0 88 47
q32 43 32 98q0 51 -28 93q-32 47 -80 50l11 136q102 -10 169 -94q64 -80 64 -185zM808 -169q0 -43 -26.5 -73t-69.5 -30q-96 0 -96 103q0 44 31 110.5t65 90.5q33 -23 64.5 -91t31.5 -110zM1200 351q0 124 -72 175q-55 -47 -124 -47q-57 0 -96 37t-39 93q0 47 35 88.5
t82 41.5q60 0 94 -17q0 124 -122 198q-103 64 -235 64q-222 0 -363 -158q-136 -153 -136 -382q0 -112 49 -187q57 -89 163 -89q92 0 152 64q57 63 57 156h136q0 -93 57 -156.5t150 -63.5q83 0 145 49q67 53 67 134z" />
    <glyph glyph-name="uni0CA3" unicode="&#xca3;" 
d="M1336 556q0 -200 -73 -356q-93 -200 -270 -200q-110 0 -177 87q-60 78 -60 192q0 98 60.5 173.5t145.5 75.5q150 0 208 -215q31 75 31 226q0 165 -49 291q-67 174 -204 174q-88 0 -145.5 -61.5t-57.5 -150.5h-136q0 89 -57.5 150.5t-145.5 61.5q-81 0 -131.5 -48
t-50.5 -129q0 -70 39 -124q44 -59 111 -59h52v-136h-52q-74 0 -114 -56q-36 -49 -36 -126q0 -63 32 -108q37 -50 98 -50q63 0 99 42t36 106h136q0 -125 -72 -217q-77 -99 -199 -99t-197 100q-69 91 -69 216q0 194 118 260q-118 77 -118 250q0 138 90 226t228 88
q182 0 271 -136q89 136 271 136q208 0 309 -199q79 -155 79 -385zM1111 216q-53 176 -139 176q-42 0 -71 -33t-29 -79q0 -54 25 -93q31 -49 91 -49q65 0 123 78z" />
    <glyph glyph-name="uni0CA4" unicode="&#xca4;" 
d="M1341 1265q0 -116 -69 -196q-73 -85 -187 -85h-88q130 -76 130 -210q209 -112 209 -348q0 -212 -216 -330q-177 -96 -408 -96t-408 96q-216 118 -216 330q0 113 70 200q67 83 177 118l59 -111q-171 -60 -171 -191q0 -147 176 -220q130 -54 302 -54q173 0 311 53
q188 72 188 216q0 134 -99 204q-25 -74 -109 -125q-80 -49 -161 -49q-96 0 -159 56q-67 58 -67 152q0 93 74 149q68 51 164 51q92 0 160 -46q-10 71 -109 117q-83 38 -165 38h-641v136h997q54 0 88 47q32 43 32 98q0 51 -28 93q-31 47 -80 50l11 136q102 -10 169 -94
q64 -80 64 -185zM993 709q-62 39 -124 39q-128 0 -128 -78q0 -67 84 -67q50 0 100 30q54 31 68 76z" />
    <glyph glyph-name="uni0CA5" unicode="&#xca5;" 
d="M1341 1265q0 -116 -70 -196q-73 -85 -187 -85q252 -199 252 -553q0 -171 -93 -295q-102 -136 -267 -136q-162 0 -264 138q-102 -138 -264 -138q-165 0 -267 136q-93 124 -93 295q0 354 252 553h-252v136h997q54 0 88 47q32 43 32 98q0 51 -28 93q-32 47 -80 50l11 136
q102 -10 169 -94q64 -80 64 -185zM808 -169q0 -43 -26.5 -73t-69.5 -30q-96 0 -96 103q0 44 31 110.5t65 90.5q33 -23 64.5 -91t31.5 -110zM1200 444q0 166 -78 297q-82 135 -229 202q-92 41 -181 41t-181 -41q-147 -67 -229 -202q-78 -131 -78 -297q0 -112 49 -187
q57 -89 163 -89q92 0 152 64q57 63 57 156h136q0 -93 57 -156.5t150 -63.5q106 0 163 89q49 75 49 187zM808 712q0 -40 -28 -68t-68 -28t-68 28t-28 68t28 68t68 28t68 -28t28 -68z" />
    <glyph glyph-name="uni0CA6" unicode="&#xca6;" 
d="M1341 1265q0 -116 -70 -196q-73 -85 -187 -85q252 -199 252 -553q0 -171 -93 -295q-102 -136 -267 -136q-162 0 -264 138q-102 -138 -264 -138q-165 0 -267 136q-93 124 -93 295q0 354 252 553h-252v136h997q54 0 88 47q32 43 32 98q0 51 -28 93q-32 47 -80 50l11 136
q102 -10 169 -94q64 -80 64 -185zM1200 444q0 166 -78 297q-82 135 -229 202q-92 41 -181 41t-181 -41q-147 -67 -229 -202q-78 -131 -78 -297q0 -112 49 -187q57 -89 163 -89q92 0 152 64q57 63 57 156h136q0 -93 57 -156.5t150 -63.5q106 0 163 89q49 75 49 187z" />
    <glyph glyph-name="uni0CA7" unicode="&#xca7;" 
d="M1341 1265q0 -116 -70 -196q-73 -85 -187 -85q252 -199 252 -553q0 -171 -93 -295q-102 -136 -267 -136q-162 0 -264 138q-102 -138 -264 -138q-165 0 -267 136q-93 124 -93 295q0 354 252 553h-252v136h997q54 0 88 47q32 43 32 98q0 51 -28 93q-32 47 -80 50l11 136
q102 -10 169 -94q64 -80 64 -185zM808 -169q0 -43 -26.5 -73t-69.5 -30q-96 0 -96 103q0 44 31 110.5t65 90.5q33 -23 64.5 -91t31.5 -110zM1200 444q0 166 -78 297q-82 135 -229 202q-92 41 -181 41t-181 -41q-147 -67 -229 -202q-78 -131 -78 -297q0 -112 49 -187
q57 -89 163 -89q92 0 152 64q57 63 57 156h136q0 -93 57 -156.5t150 -63.5q106 0 163 89q49 75 49 187z" />
    <glyph glyph-name="uni0CA8" unicode="&#xca8;" 
d="M1341 1265q0 -57 -19 -108.5t-52.5 -89.5t-79.5 -60.5t-100 -22.5q246 -194 246 -532q0 -101 -26 -184.5t-73 -143t-113 -92t-145 -32.5q-71 0 -121.5 24t-89 67t-69 102t-60.5 128q-18 41 -40 77t-52 62.5t-68.5 42t-88.5 15.5q-42 0 -73.5 -18.5t-52.5 -47t-32 -64
t-11 -69.5q0 -47 13 -86t32 -71t39 -57t35 -44l-119 -81q-33 31 -58 69.5t-42.5 81t-26.5 87.5t-9 90q0 70 21 133t60.5 110t95.5 75t126 28q135 0 225.5 -65.5t149.5 -196.5q24 -53 47.5 -95t49 -70.5t54.5 -43.5t65 -15q62 0 104.5 20t68.5 57t37 89.5t11 117.5
q0 56 -15.5 117t-44 120.5t-68 112.5t-87 93.5t-101.5 64.5t-111 24h-685v136h997q55 0 87.5 40.5t32.5 104.5q0 27 -8 51.5t-22.5 44t-34.5 32.5t-43 15l11 136q49 -5 91.5 -29.5t74 -62t49.5 -85.5t18 -102z" />
    <glyph glyph-name="uni0CAA" unicode="&#xcaa;" 
d="M1336 407q0 -84 -25.5 -158t-71.5 -129t-110 -87t-140 -33q-175 0 -277 138q-101 -138 -273 -138q-75 0 -139.5 29t-111.5 79.5t-73.5 118.5t-26.5 147q0 60 19 122t57.5 113t95.5 83t134 32q42 0 75 -8.5t57 -20.5t40.5 -25t26.5 -22l-88 -113q-6 5 -17.5 14t-26.5 17.5
t-32 14.5t-33 6q-39 0 -70.5 -17t-54 -45t-35 -63.5t-12.5 -72.5q0 -45 16.5 -85.5t44.5 -70.5t66 -47.5t81 -17.5q48 0 87 17t67 46.5t43.5 69.5t15.5 87h136q0 -46 15 -86t42.5 -70t65.5 -47t85 -17q47 1 86 21t66.5 54t43 79t15.5 96q0 224 -215 361l63 125
q75 -55 127.5 -107t84.5 -102q76 -119 76 -288zM1341 1265q0 -60 -19.5 -111t-54 -89t-81 -59.5t-101.5 -21.5h-997v136h997q25 0 47 12t38.5 32.5t25.5 46.5t9 54q0 27 -8.5 52t-23 44.5t-34 32t-42.5 14.5l11 136q49 -5 91.5 -29.5t74 -62t49.5 -85.5t18 -102zM848 712
q0 -40 -28 -68t-68 -28t-68 28t-28 68t28 68t68 28t68 -28t28 -68z" />
    <glyph glyph-name="uni0CAB" unicode="&#xcab;" 
d="M1336 407q0 -84 -25.5 -158t-71.5 -129t-110 -87t-140 -33q-175 0 -277 138q-101 -138 -273 -138q-75 0 -139.5 29t-111.5 79.5t-73.5 118.5t-26.5 147q0 60 19 122t57.5 113t95.5 83t134 32q42 0 75 -8.5t57 -20.5t40.5 -25t26.5 -22l-88 -113q-6 5 -17.5 14t-26.5 17.5
t-32 14.5t-33 6q-39 0 -70.5 -17t-54 -45t-35 -63.5t-12.5 -72.5q0 -45 16.5 -85.5t44.5 -70.5t66 -47.5t81 -17.5q48 0 87 17t67 46.5t43.5 69.5t15.5 87h136q0 -46 15 -86t42.5 -70t65.5 -47t85 -17q47 1 86 21t66.5 54t43 79t15.5 96q0 224 -215 361l63 125
q75 -55 127.5 -107t84.5 -102q76 -119 76 -288zM1341 1265q0 -60 -19.5 -111t-54 -89t-81 -59.5t-101.5 -21.5h-997v136h997q25 0 47 12t38.5 32.5t25.5 46.5t9 54q0 27 -8.5 52t-23 44.5t-34 32t-42.5 14.5l11 136q49 -5 91.5 -29.5t74 -62t49.5 -85.5t18 -102zM848 712
q0 -40 -28 -68t-68 -28t-68 28t-28 68t28 68t68 28t68 -28t28 -68zM808 -169q0 -43 -26.5 -73t-69.5 -30q-96 0 -96 103q0 20 8.5 49.5t22.5 59.5t31 55t34 37q15 -11 32 -36.5t31.5 -55.5t23.5 -60t9 -49z" />
    <glyph glyph-name="uni0CAC" unicode="&#xcac;" 
d="M1336 471q0 -98 -25 -183.5t-71 -149t-109.5 -100.5t-139.5 -38q-88 0 -158 34.5t-121 103.5q-101 -138 -273 -138q-76 0 -140.5 27.5t-111 76.5t-73 116t-26.5 145q0 53 9 96.5t30.5 79.5t56 66t85.5 56q54 28 85 56t47 54.5t20.5 49.5t4.5 41q0 63 -36 101.5t-99 38.5
q-26 0 -49.5 -8.5t-40.5 -23.5t-27 -36t-10 -46q0 -46 20 -68l-116 -68q-40 52 -40 140q0 52 21 97t57 78t84 52t103 19q61 0 111 -21t85 -59t54 -90t19 -113q0 -72 -21.5 -121t-56 -84t-76.5 -60t-83 -49q-12 -7 -29.5 -20t-33 -33t-27 -47t-11.5 -62q0 -45 16 -83.5
t44 -67.5t66 -45.5t82 -16.5q48 0 87 17t67 46.5t43.5 69.5t15.5 87h136q0 -46 15 -86t42.5 -70t66.5 -47t86 -17q48 2 87 24.5t66 62t41.5 93.5t14.5 119q0 81 -16.5 160t-51.5 150t-89 133.5t-129 110.5l80 119q84 -45 148 -113.5t107 -155t65 -188t22 -212.5z" />
    <glyph glyph-name="uni0CAD" unicode="&#xcad;" 
d="M1341 1262q0 -56 -13.5 -100t-37.5 -77t-57 -55t-73 -34q176 -238 176 -525q0 -98 -25 -183.5t-71 -149t-109.5 -100.5t-139.5 -38q-88 0 -158 34.5t-121 103.5q-101 -138 -273 -138q-76 0 -140.5 27.5t-111 76.5t-73 116t-26.5 145q0 53 9 96.5t30.5 79.5t56 66t85.5 56
q54 28 85 56t47 54.5t20.5 49.5t4.5 41q0 63 -36 101.5t-99 38.5q-26 0 -49.5 -8.5t-40.5 -23.5t-27 -36t-10 -46q0 -46 20 -68l-116 -68q-40 52 -40 140q0 52 21 97t57 78t84 52t103 19q61 0 111 -21t85 -59t54 -90t19 -113q0 -72 -21.5 -121t-56 -84t-76.5 -60t-83 -49
q-12 -7 -29.5 -20t-33 -33t-27 -47t-11.5 -62q0 -45 16 -83.5t44 -67.5t66 -45.5t82 -16.5q48 0 87 17t67 46.5t43.5 69.5t15.5 87h136q0 -46 15 -86t42.5 -70t66.5 -47t86 -17q48 2 87 24.5t66 62t41.5 93.5t14.5 119q0 282 -212 517h-200v136h248q59 0 92.5 13.5
t50.5 34.5t21.5 46.5t4.5 50.5q0 22 -8.5 46.5t-23.5 45t-34.5 35t-41.5 17.5l11 136q48 -5 90 -30t74 -64t50.5 -88t18.5 -101zM808 -169q0 -43 -26.5 -73t-69.5 -30q-96 0 -96 103q0 20 8.5 49.5t22.5 59.5t31 55t34 37q15 -11 32 -36.5t31.5 -55.5t23.5 -60t9 -49z" />
    <glyph glyph-name="uni0CAE" unicode="&#xcae;" horiz-adv-x="2048" 
d="M1960 471q0 -113 -28 -200.5t-79 -147.5t-122.5 -91.5t-158.5 -31.5q-196 0 -306 158q-96 -158 -280 -158q-173 1 -274 138q-101 -138 -273 -138q-75 0 -139.5 29t-111.5 79.5t-73.5 118.5t-26.5 147q0 60 19 122t57.5 113t95.5 83t134 32q42 0 75 -8.5t57 -20.5
t40.5 -25t26.5 -22l-88 -113q-6 5 -17.5 14t-26.5 17.5t-32 14.5t-33 6q-39 0 -70.5 -17t-54 -45t-35 -63.5t-12.5 -72.5q0 -45 16.5 -85.5t44.5 -70.5t66 -47.5t81 -17.5q48 0 87 17t67 46.5t43.5 69.5t15.5 87h136q0 -46 15 -86t42.5 -70t65.5 -47t85 -17q48 1 87 22
t66.5 57.5t42.5 87t15 109.5q0 120 -50 219t-137.5 170.5t-206 111t-256.5 39.5h-462v136h1013q25 0 47 12t38.5 32.5t25.5 46.5t9 54q0 27 -8 52t-22.5 44.5t-34.5 32t-43 14.5l11 136q49 -5 91.5 -29.5t74 -62t49.5 -85.5t18 -102q0 -57 -19.5 -108t-53 -89.5t-79.5 -61
t-99 -22.5h-82q69 -39 126.5 -99.5t98.5 -133t64 -152.5t23 -158q0 -26 -1 -38.5t-1 -30.5q0 -40 19.5 -76.5t52.5 -65t76.5 -45.5t91.5 -17q57 0 103 22.5t78.5 62.5t50.5 94.5t18 119.5q0 93 -18.5 176t-55.5 153t-91 126t-126 94l83 124q87 -49 151.5 -120.5
t107.5 -158.5t64 -186.5t21 -203.5z" />
    <glyph glyph-name="uni0CAF" unicode="&#xcaf;" horiz-adv-x="2258" 
d="M2170 471q0 -191 -96 -323q-108 -148 -292 -148q-202 0 -312 167q-111 -167 -306 -167q-200 0 -315 201q-117 -201 -330 -201q-193 0 -320 198q-111 173 -111 378q0 204 111 364q125 180 320 180t320 -180q111 -161 111 -364q-1 -34 -11.5 -103t-10.5 -92q0 -92 74 -154
q70 -59 164 -59q120 0 188 92q62 83 62 207q0 336 -211 517h-191v136h251q45 0 73 53q23 43 23 92q0 51 -28 93q-31 46 -80 50l11 136q102 -10 169 -94q64 -80 64 -185q0 -173 -135 -250q190 -194 190 -544q0 -17 -3.5 -51t-3.5 -51q0 -84 79 -145q74 -56 160 -56
q119 0 188 92q62 84 62 207q0 416 -284 554l44 119q376 -164 376 -669zM814 576q0 150 -69 268q-81 140 -221 140q-141 0 -226 -139q-74 -119 -74 -269t74 -269q85 -139 226 -139q140 0 221 140q69 118 69 268z" />
    <glyph glyph-name="uni0CB0" unicode="&#xcb0;" horiz-adv-x="1288" 
d="M1205 1265q0 -99 -54 -175q-56 -81 -150 -101q199 -168 199 -429q0 -231 -162.5 -395.5t-393.5 -164.5t-393.5 164.5t-162.5 395.5q0 256 193 424h-193v136h861q54 0 88 47q32 43 32 98q0 51 -28 93q-31 47 -80 50l11 136q102 -10 169 -94q64 -80 64 -185zM1052 576
q0 169 -119.5 288.5t-288.5 119.5t-288.5 -119.5t-119.5 -288.5t119.5 -288.5t288.5 -119.5t288.5 119.5t119.5 288.5z" />
    <glyph glyph-name="uni0CB1" unicode="&#xcb1;" 
d="M1336 562q0 -202 -92 -366q-110 -196 -296 -196q-146 0 -236 138q-90 -138 -234 -138q-186 0 -297 196q-93 164 -93 366q0 187 61 354q81 224 233 224q95 0 158 -78q60 -73 60 -170q0 -59 -23 -112h270q-23 53 -23 112q0 97 60 170q63 78 158 78q152 0 233 -224
q61 -167 61 -354zM1200 566q0 121 -32 253q-46 185 -126 185q-38 0 -61 -39q-20 -33 -20 -73q0 -41 20 -73q23 -39 61 -39v-136h-660q-92 0 -149 64q-9 -63 -9 -142q0 -144 52 -255q67 -143 194 -143q85 0 133 70q42 61 42 150h136q0 -89 42 -150q48 -70 133 -70
q126 0 193 143q51 111 51 255zM483 892q0 40 -31 78t-70 38q-78 0 -121 -170q58 -76 121 -76q47 0 76 43q25 38 25 87z" />
    <glyph glyph-name="uni0CB2" unicode="&#xcb2;" 
d="M1336 606q0 -272 -175.5 -439t-448.5 -167t-447 166q-177 168 -177 440q0 165 68 328q85 206 226 206q95 0 158 -78q60 -73 60 -170t-60 -170q-63 -78 -158 -78q-89 0 -148 64q-10 -48 -10 -109q0 -199 147 -319q138 -112 341 -112t341 112q147 120 147 319
q0 282 -176 444l96 97q216 -223 216 -534zM483 892q0 40 -31 76t-70 36q-79 0 -121 -166q57 -76 121 -76q47 0 76 43q25 38 25 87z" />
    <glyph glyph-name="uni0CB3" unicode="&#xcb3;" horiz-adv-x="1368" 
d="M1296 1265q0 -138 -95 -221q79 -84 79 -202q0 -141 -109 -243q-79 -73 -236 -141q74 -65 74 -170q0 -122 -87.5 -205t-209.5 -83t-209.5 83t-87.5 205q0 105 74 170q-401 141 -401 459q0 93 65.5 158t158.5 65t158.5 -65.5t65.5 -158.5q0 -83 -52 -141.5t-134 -78.5
q124 -101 362 -136q189 45 271 85q161 78 161 203q0 101 -92 127q-35 9 -173 9v136h161q54 0 88 47q32 43 32 98q0 51 -28 93q-31 47 -80 50l11 136q102 -10 169 -94q64 -80 64 -185zM400 916q0 36 -26 62t-62 26q-37 0 -68 -26t-31 -62q0 -75 44 -134q143 18 143 134z
M873 289q0 61 -49.5 98t-111.5 37t-110 -36q-51 -38 -51 -99q0 -60 53 -93q45 -28 108 -28t108 28q53 33 53 93z" />
    <glyph glyph-name="uni0CB5" unicode="&#xcb5;" 
d="M1336 441q0 -89 -18 -156.5t-47 -116.5t-66.5 -81.5t-76.5 -51.5t-76 -27t-66 -8q-172 0 -274 138q-101 -138 -273 -138q-75 0 -139.5 29t-111.5 79.5t-73.5 118.5t-26.5 147q0 60 19 122t57.5 113t95.5 83t134 32q42 0 75 -8.5t57 -20.5t40.5 -25t26.5 -22l-88 -113
q-6 5 -17.5 14t-26.5 17.5t-32 14.5t-33 6q-39 0 -70.5 -17t-54 -45t-35 -63.5t-12.5 -72.5q0 -45 16.5 -85.5t44.5 -70.5t66 -47.5t81 -17.5q48 0 87 17t67 46.5t43.5 69.5t15.5 87h136q0 -46 15 -86t42.5 -70t65.5 -47t85 -17q48 1 87 22t66.5 57.5t42.5 87t15 109.5
q0 120 -50 219t-137.5 170.5t-206 111t-256.5 39.5h-462v136h1013q25 0 47 12t38.5 32.5t25.5 46.5t9 54q0 27 -8 52t-22.5 44.5t-34.5 32t-43 14.5l11 136q49 -5 91.5 -29.5t74 -62t49.5 -85.5t18 -102q0 -57 -19.5 -108t-53 -89.5t-79.5 -61t-99 -22.5h-82
q69 -39 126.5 -99.5t98.5 -133t64 -152.5t23 -158z" />
    <glyph glyph-name="uni0CB6" unicode="&#xcb6;" horiz-adv-x="1288" 
d="M1205 1265q0 -57 -19.5 -108t-53 -89.5t-79.5 -61t-99 -22.5h-33q279 -179 279 -458q0 -114 -42.5 -210.5t-117.5 -166.5t-177 -109.5t-221 -39.5q-90 0 -171 25.5t-142.5 71t-98 108t-36.5 135.5q0 141 134 209q63 26 125 53t125 53q134 80 134 252v45q-45 16 -99 24
t-121 8q12 -29 16.5 -49.5t4.5 -41.5q0 -35 -11 -65t-29.5 -52t-44 -34.5t-54.5 -12.5q-27 0 -55 8.5t-51 28t-37.5 51t-14.5 76.5q0 52 19 91h-147v136h861q25 0 47 12t38.5 32.5t25.5 46.5t9 54q0 27 -8 52t-22.5 44.5t-34.5 32t-43 14.5l11 136q49 -5 91.5 -29.5t74 -62
t49.5 -85.5t18 -102zM1064 545q0 226 -227 357q0 -198 -131 -306q-50 -41 -244 -128q-132 -59 -132 -135q0 -35 27.5 -65t72 -52.5t99 -35t108.5 -12.5q92 0 170 27.5t135 77.5t89.5 119t32.5 153z" />
    <glyph glyph-name="uni0CB7" unicode="&#xcb7;" 
d="M1264 -6l-69 82q-43 -35 -94.5 -55t-111.5 -21q-175 0 -277 138q-101 -138 -273 -138q-75 0 -139.5 29t-111.5 79.5t-73.5 118.5t-26.5 147q0 60 19 122t57.5 113t95.5 83t134 32q42 0 75 -8.5t57 -20.5t40.5 -25t26.5 -22l-88 -113q-6 5 -17.5 14t-26.5 17.5t-32 14.5
t-33 6q-39 0 -70.5 -17t-54 -45t-35 -63.5t-12.5 -72.5q0 -45 16.5 -85.5t44.5 -70.5t66 -47.5t81 -17.5q48 0 87 17t67 46.5t43.5 69.5t15.5 87h136q0 -46 15 -86t42.5 -70t65.5 -47t85 -17q29 0 54.5 8.5t48.5 22.5l-266 318l94 83l254 -304q26 55 26 122q0 224 -215 361
l63 125q75 -55 127.5 -107t84.5 -102q76 -119 76 -288q0 -66 -15.5 -124t-44.5 -108l83 -98zM1341 1265q0 -60 -19.5 -111t-54 -89t-81 -59.5t-101.5 -21.5h-997v136h997q25 0 47 12t38.5 32.5t25.5 46.5t9 54q0 27 -8.5 52t-23 44.5t-34 32t-42.5 14.5l11 136
q49 -5 91.5 -29.5t74 -62t49.5 -85.5t18 -102zM848 712q0 -40 -28 -68t-68 -28t-68 28t-28 68t28 68t68 28t68 -28t28 -68z" />
    <glyph glyph-name="uni0CB8" unicode="&#xcb8;" 
d="M1341 1265q0 -58 -19.5 -109t-53.5 -89.5t-80 -60.5t-98 -22h-1002v136h997q25 0 47 12t38.5 32.5t25.5 46.5t9 54q0 27 -8.5 52t-23 44.5t-34 32t-42.5 14.5l11 136q49 -5 91.5 -29t74 -61.5t49.5 -86t18 -102.5zM735 800q0 -40 -28 -68t-68 -28t-68 28t-28 68t28 68
t68 28t68 -28t28 -68zM1336 452q0 -101 -26 -184.5t-73 -143t-113 -92t-145 -32.5q-71 0 -121.5 24t-89 67t-69 102t-60.5 128q-18 41 -40 77t-52 62.5t-68.5 42t-88.5 15.5q-42 0 -73.5 -18.5t-52.5 -47t-32 -64t-11 -69.5q0 -47 13 -86t32 -71t39 -57t35 -44l-119 -81
q-33 31 -58 69.5t-42.5 81t-26.5 87.5t-9 90q0 70 21 133t60.5 110t95.5 75t126 28q135 0 225.5 -65.5t149.5 -196.5q24 -53 47.5 -95t49 -70.5t54.5 -43.5t65 -15q62 0 104.5 20t68.5 57t37 89.5t11 117.5q0 191 -164 352l100 100q200 -197 200 -452z" />
    <glyph glyph-name="uni0CB9" unicode="&#xcb9;" 
d="M1341 1265q0 -112 -68 -194q-73 -87 -183 -87h-419q76 -56 109 -251q89 68 212 68q162 0 257 -122q87 -112 87 -278t-87 -278q-95 -123 -257 -123q-179 0 -280 138q-101 -138 -280 -138q-162 0 -257 123q-87 112 -87 278t87 278q95 122 257 122q118 0 205 -62
q-41 198 -128 245h-421v136h997q54 0 88 47q32 43 32 98q0 51 -28 93q-32 47 -80 50l11 136q102 -10 169 -94q64 -80 64 -185zM1200 418q0 101 -52 171q-58 76 -156 76q-105 0 -162 -81q-50 -71 -50 -181q0 -96 57 -164q61 -71 155 -71q98 0 156 78q52 70 52 172zM644 403
q0 107 -51 180q-58 82 -161 82q-98 0 -156 -76q-52 -70 -52 -171q0 -102 52 -172q58 -78 156 -78q94 0 155 71q57 68 57 164z" />
    <glyph glyph-name="uni0CBE" unicode="&#xcbe;" horiz-adv-x="1296" 
d="M1208 505q0 -107 -29.5 -199t-82.5 -160t-127 -107t-163 -39q-66 0 -121 25t-94.5 69.5t-62 105.5t-22.5 133q0 56 20 108t54 91.5t80 63.5t98 24q47 0 82.5 -14t59.5 -38t36 -56t12 -67q0 -29 -11 -54t-29.5 -43.5t-44 -29.5t-53.5 -11q-29 0 -54 10t-43.5 28
t-29.5 43.5t-11 56.5q-16 -25 -22.5 -54t-6.5 -58q0 -35 12 -65.5t34 -52.5t52 -34.5t65 -12.5q60 0 109.5 27.5t84 75t53.5 112.5t19 140q0 100 -31 184.5t-87 146t-133 96t-169 34.5h-740v136h740q122 0 224 -46.5t176 -128.5t115 -194.5t41 -245.5z" />
    <glyph glyph-name="uni0CBF" unicode="&#xcbf;" horiz-adv-x="496" 
d="M408 1266q0 -209 -167 -318q-142 -92 -362 -92q-47 0 -77 2v136q67 -10 106 -10q214 0 310 95q-36 -17 -84 -17q-101 0 -163 72q-59 68 -59 171q0 100 69.5 169.5t169.5 69.5q118 0 189 -81q68 -78 68 -197zM282 1239v17q0 64 -33 106q-36 46 -98 46q-51 0 -85 -32.5
t-34 -83.5q0 -52 39 -82q35 -28 88 -28q80 0 123 57z" />
    <glyph glyph-name="uni0CC0" unicode="&#xcc0;" horiz-adv-x="1160" 
d="M408 1266q0 -209 -167 -318q-142 -92 -362 -92q-47 0 -77 2v136q67 -10 106 -10q214 0 310 95q-36 -17 -84 -17q-101 0 -163 72q-59 68 -59 171q0 100 69.5 169.5t169.5 69.5q118 0 189 -81q68 -78 68 -197zM282 1239v17q0 64 -33 106q-36 46 -98 46q-51 0 -85 -32.5
t-34 -83.5q0 -52 39 -82q35 -28 88 -28q80 0 123 57zM1072 35q-38 -3 -60 -3q-256 0 -421 170t-165 428q0 210 88 354q95 156 250 156q106 0 181 -75t75 -181q0 -113 -70.5 -184.5t-185.5 -71.5q-123 0 -192 97q-10 -58 -10 -111q0 -181 115 -309q123 -137 320 -137
q25 0 60 4zM884 884q0 50 -35 85t-85 35t-85 -35t-35 -85t35 -85t85 -35t85 35t35 85z" />
    <glyph glyph-name="uni0CC1" unicode="&#xcc1;" horiz-adv-x="602" 
d="M514 471q0 -107 -29.5 -193.5t-81.5 -148.5t-124.5 -95.5t-157.5 -33.5q-68 0 -121.5 13.5t-101.5 39.5t-94 64.5t-100 89.5l106 122q161 -161 306 -161q57 0 105 21t83 60t54.5 94.5t19.5 123.5t-13.5 144.5t-46 151t-88 141.5t-139.5 117l80 119q92 -47 157 -123
t106.5 -167.5t60.5 -190t19 -188.5z" />
    <glyph glyph-name="uni0CC2" unicode="&#xcc2;" horiz-adv-x="1296" 
d="M1208 505q0 -107 -29.5 -199t-82.5 -160t-127 -107t-163 -39q-66 0 -121 25t-94.5 69.5t-62 105.5t-22.5 133q0 46 14 97t45 93.5t78.5 70t115.5 27.5q30 0 56.5 -11.5t46.5 -31.5t31.5 -47t11.5 -57t-11.5 -56.5t-31.5 -46.5t-46.5 -31.5t-56.5 -11.5q-33 0 -61.5 12.5
t-48.5 35.5q-5 -22 -5 -41q0 -36 12 -66.5t33.5 -53t51.5 -35t65 -12.5q60 0 109.5 27.5t84 75t53.5 112.5t19 140q0 97 -27.5 181t-77.5 146t-119 98t-151 36q-79 0 -143 -33.5t-109.5 -92.5t-70 -141t-24.5 -178q0 -246 -45 -358q-72 -181 -278 -181q-46 0 -89.5 18.5
t-82.5 49t-73.5 71.5t-62.5 86l91 103q19 -22 42.5 -50t52 -52.5t61 -41t68.5 -16.5q180 0 180 376q0 125 34 230.5t97 182.5t151.5 120t196.5 43q114 0 209 -47.5t163 -131t105.5 -195.5t37.5 -241z" />
    <glyph glyph-name="uni0CC3" unicode="&#xcc3;" horiz-adv-x="524" 
d="M444 -150q0 -133 -25.5 -243.5t-79.5 -189.5t-137.5 -123t-198.5 -44q-51 0 -92.5 17.5t-73.5 45.5t-56 64.5t-39 74t-22.5 73.5t-7.5 64q0 59 16 104.5t44.5 77t66.5 47.5t83 16t84 -16.5t67 -45t44 -67t16 -82.5q0 -17 -5.5 -49t-26.5 -64t-62.5 -56t-113.5 -24
q-14 0 -25.5 1.5t-24.5 6.5q13 -29 47.5 -48t82.5 -19q80 0 138 32t95.5 93t55.5 148t18 197q0 221 -90 400q-36 72 -79.5 128t-97.5 97l56 110q75 -56 134.5 -130.5t107.5 -168.5q101 -204 101 -427zM5 -376q0 34 -24.5 58.5t-58.5 24.5t-58.5 -24.5t-24.5 -58.5
t24.5 -58.5t58.5 -24.5t58.5 24.5t24.5 58.5z" />
    <glyph glyph-name="uni0CC4" unicode="&#xcc4;" horiz-adv-x="994" 
d="M906 347q0 -42 -15 -78.5t-41 -63t-62.5 -42t-79.5 -15.5q-42 0 -77.5 16.5t-61.5 44.5t-40.5 66t-14.5 82q0 30 13.5 61.5t31.5 53.5h-346q38 -42 70 -91t60 -104q101 -204 101 -427q0 -133 -25.5 -243.5t-79.5 -189.5t-137.5 -123t-198.5 -44q-51 0 -92.5 17.5
t-73.5 45.5t-56 64.5t-39 74t-22.5 73.5t-7.5 64q0 59 16 104.5t44.5 77t66.5 47.5t83 16t84 -16.5t67 -45t44 -67t16 -82.5q0 -17 -5.5 -49t-26.5 -64t-62.5 -56t-113.5 -24q-14 0 -25.5 1.5t-24.5 6.5q13 -29 47.5 -48t82.5 -19q80 0 138 32t95.5 93t55.5 148t18 197
q0 221 -90 400q-36 72 -79.5 128t-97.5 97l56 110h546q59 0 107 -16.5t81.5 -46.5t52 -72.5t18.5 -93.5zM622 356q0 -29 7 -49t19 -32t27.5 -17.5t32.5 -5.5q42 0 68 26.5t26 68.5q0 48 -32.5 81t-87.5 41q-10 -8 -20.5 -19t-19.5 -25.5t-14.5 -32t-5.5 -36.5zM5 -376
q0 34 -24.5 58.5t-58.5 24.5t-58.5 -24.5t-24.5 -58.5t24.5 -58.5t58.5 -24.5t58.5 24.5t24.5 58.5z" />
    <glyph glyph-name="uni0CC6" unicode="&#xcc6;" horiz-adv-x="400" 
d="M330 1268q0 -60 -21.5 -112t-59 -90.5t-89 -60t-111.5 -21.5h-157v136h157q32 0 60 13.5t48.5 35.5t32.5 51t12 60q0 35 -19 70t-61 54q6 -14 11.5 -25.5t5.5 -35.5q0 -42 -14 -68t-33.5 -39.5t-40 -18t-34.5 -4.5q-29 0 -52.5 12t-40.5 32t-26.5 47.5t-9.5 57.5
q0 41 14.5 74.5t40 57.5t60 37t73.5 13q56 0 102.5 -22.5t80.5 -60t52.5 -88t18.5 -105.5z" />
    <glyph glyph-name="uni0CC7" unicode="&#xcc7;" horiz-adv-x="1090" 
d="M350 1268q0 -60 -21.5 -112t-59 -90.5t-89 -60t-111.5 -21.5h-157v136h157q32 0 60 13.5t48.5 35.5t32.5 51t12 60q0 35 -19 70t-61 54q6 -14 11.5 -25.5t5.5 -35.5q0 -42 -14 -68t-33.5 -39.5t-40 -18t-34.5 -4.5q-29 0 -52.5 12t-40.5 32t-26.5 47.5t-9.5 57.5
q0 41 14.5 74.5t40 57.5t60 37t73.5 13q56 0 102.5 -22.5t80.5 -60t52.5 -88t18.5 -105.5zM1002 35q-38 -3 -60 -3q-256 0 -421 170t-165 428q0 210 88 354q95 156 250 156q106 0 181 -75t75 -181q0 -113 -70.5 -184.5t-185.5 -71.5q-123 0 -192 97q-10 -58 -10 -111
q0 -181 115 -309q123 -137 320 -137q25 0 60 4zM814 884q0 50 -35 85t-85 35t-85 -35t-35 -85t35 -85t85 -35t85 35t35 85z" />
    <glyph glyph-name="uni0CC8" unicode="&#xcc8;" horiz-adv-x="780" 
d="M350 1268q0 -60 -21.5 -112t-59 -90.5t-89 -60t-111.5 -21.5h-157v136h157q32 0 60 13.5t48.5 35.5t32.5 51t12 60q0 35 -19 70t-61 54q6 -14 11.5 -25.5t5.5 -35.5q0 -42 -14 -68t-33.5 -39.5t-40 -18t-34.5 -4.5q-29 0 -52.5 12t-40.5 32t-26.5 47.5t-9.5 57.5
q0 41 14.5 74.5t40 57.5t60 37t73.5 13q56 0 102.5 -22.5t80.5 -60t52.5 -88t18.5 -105.5zM811 -303q0 -81 -21.5 -161t-66 -143.5t-113 -103.5t-161.5 -40q-56 0 -111.5 22.5t-99 68.5t-70.5 117t-27 169q0 43 13 81.5t37.5 67t60 45.5t79.5 17q45 0 80.5 -17t59.5 -45.5
t37 -67t13 -81.5q0 -45 -16 -79.5t-41 -58t-55.5 -35.5t-59.5 -12q-16 0 -29 1t-27 6q40 -87 154 -87q71 0 119 31.5t77.5 80.5t42.5 109t13 117q0 75 -25 140t-70.5 113t-108.5 76t-138 28v112q39 0 69 15.5t50.5 44t31 68t10.5 87.5q0 85 -33 156l105 34q40 -110 40 -208
q0 -154 -104 -240q64 -22 117 -64.5t90 -99t57.5 -124.5t20.5 -140zM413 -364q0 32 -21.5 57.5t-60.5 25.5q-38 0 -60 -25.5t-22 -57.5q0 -30 4.5 -46t12.5 -32q10 -9 25 -11t26 -2q47 0 71.5 26.5t24.5 64.5z" />
    <glyph glyph-name="uni0CCA" unicode="&#xcca;" horiz-adv-x="1630" 
d="M350 1268q0 -60 -21.5 -112t-59 -90.5t-89 -60t-111.5 -21.5h-157v136h157q32 0 60 13.5t48.5 35.5t32.5 51t12 60q0 35 -19 70t-61 54q6 -14 11.5 -25.5t5.5 -35.5q0 -42 -14 -68t-33.5 -39.5t-40 -18t-34.5 -4.5q-29 0 -52.5 12t-40.5 32t-26.5 47.5t-9.5 57.5
q0 41 14.5 74.5t40 57.5t60 37t73.5 13q56 0 102.5 -22.5t80.5 -60t52.5 -88t18.5 -105.5zM1542 505q0 -107 -29.5 -199t-82.5 -160t-127 -107t-163 -39q-66 0 -121 25t-94.5 69.5t-62 105.5t-22.5 133q0 46 14 97t45 93.5t78.5 70t115.5 27.5q30 0 56.5 -11.5t46.5 -31.5
t31.5 -47t11.5 -57t-11.5 -56.5t-31.5 -46.5t-46.5 -31.5t-56.5 -11.5q-33 0 -61.5 12.5t-48.5 35.5q-5 -22 -5 -41q0 -36 12 -66.5t33.5 -53t51.5 -35t65 -12.5q60 0 109.5 27.5t84 75t53.5 112.5t19 140q0 97 -27.5 181t-77.5 146t-119 98t-151 36q-79 0 -143 -33.5
t-109.5 -92.5t-70 -141t-24.5 -178q0 -246 -45 -358q-72 -181 -278 -181q-46 0 -89.5 18.5t-82.5 49t-73.5 71.5t-62.5 86l91 103q19 -22 42.5 -50t52 -52.5t61 -41t68.5 -16.5q180 0 180 376q0 125 34 230.5t97 182.5t151.5 120t196.5 43q114 0 209 -47.5t163 -131
t105.5 -195.5t37.5 -241z" />
    <glyph glyph-name="uni0CCB" unicode="&#xccb;" horiz-adv-x="2446" 
d="M350 1268q0 -60 -21.5 -112t-59 -90.5t-89 -60t-111.5 -21.5h-157v136h157q32 0 60 13.5t48.5 35.5t32.5 51t12 60q0 35 -19 70t-61 54q6 -14 11.5 -25.5t5.5 -35.5q0 -42 -14 -68t-33.5 -39.5t-40 -18t-34.5 -4.5q-29 0 -52.5 12t-40.5 32t-26.5 47.5t-9.5 57.5
q0 41 14.5 74.5t40 57.5t60 37t73.5 13q56 0 102.5 -22.5t80.5 -60t52.5 -88t18.5 -105.5zM1542 505q0 -107 -29.5 -199t-82.5 -160t-127 -107t-163 -39q-66 0 -121 25t-94.5 69.5t-62 105.5t-22.5 133q0 46 14 97t45 93.5t78.5 70t115.5 27.5q30 0 56.5 -11.5t46.5 -31.5
t31.5 -47t11.5 -57t-11.5 -56.5t-31.5 -46.5t-46.5 -31.5t-56.5 -11.5q-33 0 -61.5 12.5t-48.5 35.5q-5 -22 -5 -41q0 -36 12 -66.5t33.5 -53t51.5 -35t65 -12.5q60 0 109.5 27.5t84 75t53.5 112.5t19 140q0 97 -27.5 181t-77.5 146t-119 98t-151 36q-79 0 -143 -33.5
t-109.5 -92.5t-70 -141t-24.5 -178q0 -246 -45 -358q-72 -181 -278 -181q-46 0 -89.5 18.5t-82.5 49t-73.5 71.5t-62.5 86l91 103q19 -22 42.5 -50t52 -52.5t61 -41t68.5 -16.5q180 0 180 376q0 125 34 230.5t97 182.5t151.5 120t196.5 43q114 0 209 -47.5t163 -131
t105.5 -195.5t37.5 -241zM2358 35q-38 -3 -60 -3q-256 0 -421 170t-165 428q0 210 88 354q95 156 250 156q106 0 181 -75t75 -181q0 -113 -70.5 -184.5t-185.5 -71.5q-123 0 -192 97q-10 -58 -10 -111q0 -181 115 -309q123 -137 320 -137q25 0 60 4zM2170 884q0 50 -35 85
t-85 35t-85 -35t-35 -85t35 -85t85 -35t85 35t35 85z" />
    <glyph glyph-name="uni0CCC" unicode="&#xccc;" horiz-adv-x="1214" 
d="M1126 944q0 -105 -28.5 -194.5t-80.5 -155t-126.5 -102t-165.5 -36.5q-62 0 -116.5 22t-95 61.5t-64.5 93.5t-24 119q0 46 14 98t45 95t78.5 71.5t115.5 28.5q30 0 56.5 -11.5t46.5 -31.5t31.5 -47t11.5 -57t-11.5 -56.5t-31.5 -46.5t-46.5 -31.5t-56.5 -11.5
q-33 0 -61.5 12.5t-48.5 35.5q-5 -22 -5 -41q0 -35 12.5 -65.5t34.5 -53t51.5 -35.5t63.5 -13q60 0 108.5 27t83.5 75t54 113t19 140q0 100 -28.5 185t-78.5 146t-120 95.5t-152 34.5h-169q64 -61 64 -148q0 -57 -25.5 -107.5t-70 -88t-106 -59t-133.5 -21.5h-259v136h259
q203 0 203 145q0 30 -15 56.5t-41.5 45.5t-64 30t-82.5 11h-259v136h699q239 0 385 -192q130 -170 130 -408z" />
    <glyph glyph-name="uni0CCD" unicode="&#xccd;" horiz-adv-x="800" 
d="M848 1365l-101 -93q-51 56 -119 56q-88 0 -162 -75q-68 -68 -68 -133q169 0 251 -78q63 -60 63 -153q0 -101 -63 -162q-57 -55 -141 -55q-119 0 -185 100q-57 86 -57 212h-354v136h354q0 101 91 209q111 132 275 132q125 0 216 -96zM576 886q0 98 -178 98
q0 -176 108 -176q28 0 49 23.5t21 54.5z" />
    <glyph glyph-name="uni0CD5" unicode="&#xcd5;" horiz-adv-x="778" 
d="M708 35q-38 -3 -60 -3q-256 0 -421 170t-165 428q0 210 88 354q95 156 250 156q106 0 181 -75t75 -181q0 -113 -70.5 -184.5t-185.5 -71.5q-123 0 -192 97q-10 -58 -10 -111q0 -181 115 -309q123 -137 320 -137q25 0 60 4zM520 884q0 50 -35 85t-85 35t-85 -35t-35 -85
t35 -85t85 -35t85 35t35 85z" />
    <glyph glyph-name="uni0CD6" unicode="&#xcd6;" horiz-adv-x="750" 
d="M662 -303q0 -81 -21.5 -161t-66 -143.5t-113 -103.5t-161.5 -40q-56 0 -111.5 22.5t-99 68.5t-70.5 117t-27 169q0 43 13 81.5t37.5 67t60 45.5t79.5 17q45 0 80.5 -17t59.5 -45.5t37 -67t13 -81.5q0 -45 -16 -79.5t-41 -58t-55.5 -35.5t-59.5 -12q-16 0 -29 1t-27 6
q40 -87 154 -87q71 0 119 31.5t77.5 80.5t42.5 109t13 117q0 75 -25 140t-70.5 113t-108.5 76t-138 28v112q39 0 69 15.5t50.5 44t31 68t10.5 87.5q0 85 -33 156l105 34q40 -110 40 -208q0 -154 -104 -240q64 -22 117 -64.5t90 -99t57.5 -124.5t20.5 -140zM264 -364
q0 32 -21.5 57.5t-60.5 25.5q-38 0 -60 -25.5t-22 -57.5q0 -30 4.5 -46t12.5 -32q10 -9 25 -11t26 -2q47 0 71.5 26.5t24.5 64.5z" />
    <glyph glyph-name="uni0CDE" unicode="&#xcde;" 
d="M1338 562q0 -202 -93 -366q-111 -196 -297 -196q-146 0 -236 138q-90 -138 -234 -138q-186 0 -297 196q-93 164 -93 366q0 186 60 352q81 226 234 226q95 0 159 -78q59 -73 59 -170t-60 -170q-63 -78 -158 -78q-90 0 -147 64q-11 -52 -11 -142q0 -143 52 -254
q67 -144 194 -144q86 0 133 70q42 61 42 150h136q0 -89 42 -150q47 -70 133 -70q127 0 194 144q52 111 52 254q0 90 -11 142q-57 -64 -147 -64q-95 0 -159 78q-59 73 -59 170t60 170q63 78 158 78q153 0 234 -226q60 -166 60 -352zM1165 838q-42 166 -121 166
q-42 0 -71.5 -34.5t-29.5 -77.5q0 -49 25 -87q29 -43 76 -43q63 0 121 76zM483 892q0 45 -28.5 78.5t-72.5 33.5q-79 0 -121 -166q58 -76 121 -76q47 0 76 43q25 38 25 87z" />
    <glyph glyph-name="uni0CE0" unicode="&#xce0;" horiz-adv-x="2564" 
d="M2476 619q0 -163 -79 -334q-73 -158 -194 -285l-104 104q241 265 241 525q0 375 -218 375q-104 0 -146 -50q-37 -46 -37 -152q0 -64 26 -187.5t26 -186.5q0 -178 -72 -292q-85 -136 -252 -136q-190 0 -289 206q-37 -95 -122.5 -150.5t-188.5 -55.5q-106 0 -192.5 59
t-127.5 157q-100 -216 -343 -216q-131 0 -220 73q-96 79 -96 207q0 110 64.5 174t174.5 64q96 0 166 -57l-61 -114q-51 35 -95 35q-113 0 -113 -87q0 -61 66 -97q54 -30 120 -30q125 0 191 89q59 80 59 210q0 131 -24 244q-51 -64 -161 -64q-92 0 -154 79q-59 73 -59 167
t59 168q62 79 154 79q172 0 262 -269q65 -194 65 -412q0 -123 70 -205q73 -86 194 -86q112 0 182 97q62 87 62 204q0 356 -247 515h-204v136h268q51 0 87 48q33 44 33 97q0 51 -28 93q-32 46 -80 50l11 136q103 -10 169 -94q64 -79 64 -185q0 -178 -147 -254
q212 -235 212 -532q0 -127 45 -209q57 -102 174 -102q188 0 188 260q0 63 -26 187t-26 187q0 156 80 245q84 93 238 93q190 0 283 -175q72 -137 72 -346zM604 849q-34 155 -129 155q-37 0 -64 -36.5t-27 -74.5q0 -39 26 -74q27 -38 65 -38q87 0 129 68z" />
    <glyph glyph-name="uni0CE1" unicode="&#xce1;" horiz-adv-x="1918" 
d="M1830 200q0 -85 -61 -142.5t-147 -57.5q-194 0 -194 209h106q0 -104 90 -104q41 0 71 28t30 69q0 69 -61 92q-37 14 -119 14h-243q-2 -136 -68 -218q-72 -90 -203 -90q-124 0 -196.5 77.5t-72.5 202.5q0 130 114 214l210 122q114 74 114 180q0 85 -61.5 146.5
t-146.5 61.5q-91 0 -151 -61t-60 -152v-27h-136v27q0 89 -60 151t-149 62t-150.5 -62t-61.5 -151q0 -72 43 -138q45 -70 112 -90l-37 -128q-109 31 -183 137q-71 103 -71 219q0 145 101.5 247t246.5 102q178 0 278 -136q99 136 271 136q144 0 247.5 -100.5t103.5 -243.5
q0 -162 -114 -261q-35 -30 -210 -125q-114 -61 -114 -132q0 -53 43 -83q37 -27 92 -27q128 0 128 182v40q-1 26 -1 38h371q299 0 299 -228z" />
    <glyph glyph-name="uni0CE6" unicode="&#xce6;" horiz-adv-x="1420" 
d="M1235 576q0 -224 -150 -383q-153 -161 -376 -161t-374 160t-151 384t151 384t374 160t376 -161q150 -159 150 -383zM1098 576q0 168 -110 286q-113 122 -279 122t-279 -122q-110 -118 -110 -286t110 -286q113 -122 279 -122t279 122q110 118 110 286z" />
    <glyph glyph-name="uni0CE7" unicode="&#xce7;" horiz-adv-x="1420" 
d="M1245 576q0 -158 -79 -312q-84 -164 -217 -232l-61 122q98 51 162 182q58 120 58 240q0 167 -116 287.5t-283 120.5t-283 -120.5t-116 -287.5q0 -120 58 -240q64 -131 162 -182l-60 -122q-133 68 -217 232q-79 153 -79 312q0 224 156 384t379 160t379.5 -160t156.5 -384z
" />
    <glyph glyph-name="uni0CE8" unicode="&#xce8;" horiz-adv-x="1420" 
d="M1168 576q0 -224 -156.5 -384t-379.5 -160h-380v136h380q58 0 130 25q269 95 269 383q0 167 -116 287.5t-283 120.5q-84 0 -144 -60t-60 -144t60 -144t144 -60q91 0 143 59l97 -95q-83 -100 -240 -100q-141 0 -240.5 99.5t-99.5 240.5t99.5 240.5t240.5 99.5
q223 0 379.5 -160t156.5 -384z" />
    <glyph glyph-name="uni0CE9" unicode="&#xce9;" horiz-adv-x="1420" 
d="M1190 0q-82 0 -148 41q-41 24 -119 99q-83 -67 -181 -90q-75 -18 -201 -18q-111 0 -206 67q-105 74 -105 181q0 121 92 186q81 58 207 58q81 0 212 -61t181 -124q62 84 62 264q0 158 -98 267q-102 114 -258 114q-42 0 -71 -22q-32 -25 -32 -66q0 -89 101 -89q54 0 94 55
l69 -84q-24 -42 -70 -73q-50 -33 -95 -33q-98 0 -166.5 63.5t-68.5 160.5q0 93 68 158.5t162 65.5q205 0 355 -161q146 -158 146 -365q0 -210 -105 -350q69 -82 126 -82q16 0 40 6zM828 248q-50 63 -134 101.5t-166 38.5q-162 0 -162 -100q0 -64 68 -95q51 -25 123 -25
q191 0 271 80z" />
    <glyph glyph-name="uni0CEA" unicode="&#xcea;" horiz-adv-x="1420" 
d="M1306 842q0 -141 -109 -243q-78 -73 -236 -141q74 -65 74 -170q0 -122 -87.5 -205t-209.5 -83t-209.5 83t-87.5 205q0 105 74 170q-401 141 -401 439q0 93 65.5 158t158.5 65t158.5 -65.5t65.5 -158.5q0 -152 -186 -220q95 -77 362 -116q190 46 271 85q161 78 161 203
q0 94 -77 127q-42 26 -168 29l30 136q183 -4 254 -63q97 -62 97 -235zM426 896q0 36 -26 62t-62 26q-37 0 -69 -26t-32 -62q0 -84 53 -138q136 39 136 138zM899 289q0 61 -51 100q-47 35 -110 35t-110 -36q-51 -38 -51 -99q0 -60 53 -93q45 -28 108 -28t108 28q53 33 53 93z
" />
    <glyph glyph-name="uni0CEB" unicode="&#xceb;" horiz-adv-x="1420" 
d="M1332 844q0 -203 -162 -293q112 -112 112 -241q0 -141 -68 -214q-62 -65 -203 -96l-61 131q77 0 138 46q66 50 66 125q0 91 -129 195q-110 -26 -335 -38q-19 -182 -95 -292q-94 -135 -261 -135q-102 0 -174 71.5t-72 172.5q0 175 163 249q101 45 317 62q-4 127 -53 247
q-64 158 -169 158q-55 0 -88.5 -39t-33.5 -95q0 -44 20 -69q7 -8 55 -48l-75 -108q-56 28 -93 96q-35 64 -35 129q0 108 72 185t179 77q171 0 268 -186q77 -149 81 -339q126 8 202 19q-80 97 -80 230q0 115 71.5 195.5t185.5 80.5q117 0 187 -79t70 -197zM1204 860
q0 55 -37 93.5t-92 38.5q-129 0 -129 -148q0 -90 111 -191q147 60 147 207zM558 451q-148 -11 -215 -34q-127 -43 -127 -149q0 -43 37.5 -75.5t80.5 -32.5q87 0 154 106q52 83 70 185z" />
    <glyph glyph-name="uni0CEC" unicode="&#xcec;" horiz-adv-x="1420" 
d="M1277 32h-459q-220 0 -375 121q-167 130 -167 341q0 185 147 296q-107 194 -280 194l12 136q255 0 395 -262q116 42 268 42q117 0 194 -67q80 -70 80 -185t-79 -187.5t-195 -72.5q-124 0 -208 82q-59 58 -124 193q-79 -72 -79 -180q0 -152 135 -240q116 -75 276 -75h459
v-136zM961 639q0 56 -44 92q-41 33 -99 33q-119 0 -207 -30q47 -99 77 -137q56 -73 130 -73q58 0 98 28q45 31 45 87z" />
    <glyph glyph-name="uni0CED" unicode="&#xced;" horiz-adv-x="1420" 
d="M1197 32h-630q-141 0 -242.5 96.5t-101.5 236.5q0 162 127 256q39 29 234 116q127 56 127 127q0 63 -36.5 101.5t-98.5 38.5q-52 0 -88 -31q-39 -32 -39 -83q0 -47 20 -68l-116 -68q-40 52 -40 140q0 107 80 178q77 68 185 68q123 0 196 -79t73 -204q0 -130 -127 -204
q-117 -51 -234 -103q-127 -63 -127 -169q0 -89 59.5 -151t148.5 -62h630v-136z" />
    <glyph glyph-name="uni0CEE" unicode="&#xcee;" horiz-adv-x="1420" 
d="M1263 984h-186q151 -172 151 -408q0 -221 -157.5 -382.5t-378.5 -161.5q-237 0 -388 168q-148 163 -148 406q0 168 69 331q86 203 225 203q95 0 159 -78q59 -73 59 -170t-59 -170q-64 -78 -159 -78q-91 0 -148 64q-10 -46 -10 -109q0 -180 109 -303q114 -128 291 -128
q164 0 282 118.5t118 282.5q0 262 -218 415v135h389v-135zM551 892q0 40 -31 76t-70 36q-79 0 -121 -166q58 -76 121 -76q47 0 76 43q25 38 25 87z" />
    <glyph glyph-name="uni0CEF" unicode="&#xcef;" horiz-adv-x="1420" 
d="M1146 984h-566q-71 0 -120.5 -49.5t-49.5 -120.5q0 -93 57 -143q106 93 258 93q103 0 167 -40q78 -48 78 -145q0 -87 -70 -141q-64 -50 -153 -50q-149 0 -256 68q-11 -29 -11 -58q0 -98 59.5 -164t155.5 -66q88 0 135 31l96 -95q-88 -72 -231 -72q-157 0 -254.5 104
t-97.5 262q0 73 35 151q-104 111 -104 265q0 126 89.5 216t216.5 90h566v-136zM840 576q0 68 -94 68q-42 0 -100 -19q-62 -20 -89 -46q30 -27 85 -49t95 -22q34 0 65 17q38 20 38 51z" />
    <glyph glyph-name="glyph131" horiz-adv-x="350" 
d="M482 471q0 -180 -102 -319q-112 -152 -286 -152q-199 0 -315 201l67 158q89 -191 250 -191q120 0 189 92q61 83 61 207q0 324 -249 517h-53v136h298v-136h-54q194 -183 194 -513z" />
    <glyph glyph-name="glyph132" horiz-adv-x="390" 
d="M302 386q0 -282 -131 -459q-147 -199 -419 -199q-215 0 -369.5 151t-154.5 366h120q0 -152 127 -267q124 -111 278 -111q214 0 321 158q91 136 91 360q0 259 -141 557l131 42q147 -374 147 -598z" />
    <glyph glyph-name="glyph133" horiz-adv-x="490" 
d="M402 461q0 -189 -99 -318q-109 -143 -292 -143q-120 0 -224 72q-91 76 -183 153l91 104q190 -194 312 -194q257 0 257 364t-264 531l92 107q147 -83 230 -253q80 -136 80 -423z" />
    <glyph glyph-name="glyph134" horiz-adv-x="660" 
d="M572 504q0 -199 -101 -342q-114 -162 -305 -162q-140 0 -247 85q-83 66 -163 199l-126 234l116 74q96 -196 158 -275q117 -149 260 -149q125 0 201 100q68 91 68 220q0 234 -64 337q-82 151 -181 186l37 139q170 -62 272 -255q75 -168 75 -391z" />
    <glyph glyph-name="glyph135" horiz-adv-x="1086" 
d="M998 576q0 -128 -26.5 -234t-75.5 -182t-119 -118t-158 -42q-56 0 -107.5 22.5t-91 60.5t-63 88.5t-23.5 106.5q0 47 15 97t45.5 91t78.5 67.5t114 26.5q30 0 56.5 -11.5t46.5 -31.5t31.5 -47t11.5 -57t-11.5 -56.5t-31.5 -46.5t-46.5 -31.5t-56.5 -11.5
q-33 0 -61.5 12.5t-48.5 35.5q-5 -22 -5 -41q0 -27 13 -51.5t34 -43t47 -29.5t53 -11q60 0 106 29t78 84.5t48.5 134.5t16.5 180q0 85 -24 160.5t-66.5 132.5t-101 90.5t-127.5 33.5q-211 0 -296 -274q-9 -29 -27 -129.5t-47 -276.5q-24 -148 -62.5 -252t-97 -170t-139 -96
t-187.5 -30q-93 0 -175.5 38.5t-145 105t-101 155.5t-43.5 190h120q0 -70 27.5 -133t75 -110.5t110 -75.5t132.5 -28q82 0 144 27t107 88.5t75 161.5t50 247q19 143 34.5 229t26.5 118q25 73 62.5 137t89.5 111.5t118.5 75t149.5 27.5q97 0 179 -43t142 -116.5t93.5 -173
t33.5 -211.5z" />
    <glyph glyph-name="glyph136" horiz-adv-x="1176" 
d="M1088 505q0 -107 -29.5 -199t-82.5 -160t-127 -107t-163 -39q-66 0 -121 25t-94.5 69.5t-62 105.5t-22.5 133q0 46 14 97t45 93.5t78.5 70t115.5 27.5q30 0 56.5 -11.5t46.5 -31.5t31.5 -47t11.5 -57t-11.5 -56.5t-31.5 -46.5t-46.5 -31.5t-56.5 -11.5q-33 0 -61.5 12.5
t-48.5 35.5q-5 -22 -5 -41q0 -36 12 -66.5t33.5 -53t51.5 -35t65 -12.5q60 0 109.5 27.5t84 75t53.5 112.5t19 140q0 97 -27.5 181t-77.5 146t-119 98t-151 36q-79 0 -143 -33.5t-109.5 -92.5t-70 -141t-24.5 -178q0 -246 -45 -358q-72 -181 -278 -181q-46 0 -89.5 18.5
t-82.5 49t-73.5 71.5t-62.5 86l91 103q19 -22 42.5 -50t52 -52.5t61 -41t68.5 -16.5q180 0 180 376q0 125 34 230.5t97 182.5t151.5 120t196.5 43q114 0 209 -47.5t163 -131t105.5 -195.5t37.5 -241z" />
    <glyph glyph-name="glyph137" horiz-adv-x="1326" 
d="M1238 505q0 -107 -29.5 -199t-82.5 -160t-127 -107t-163 -39q-66 0 -121 25t-94.5 69.5t-62 105.5t-22.5 133q0 46 14 97t45 93.5t78.5 70t115.5 27.5q30 0 56.5 -11.5t46.5 -31.5t31.5 -47t11.5 -57t-11.5 -56.5t-31.5 -46.5t-46.5 -31.5t-56.5 -11.5q-33 0 -61.5 12.5
t-48.5 35.5q-5 -22 -5 -41q0 -36 12 -66.5t33.5 -53t51.5 -35t65 -12.5q60 0 109.5 27.5t84 75t53.5 112.5t19 140q0 97 -27.5 181t-77.5 146t-119 98t-151 36q-79 0 -143 -33.5t-109.5 -92.5t-70 -141t-24.5 -178q0 -246 -45 -358q-72 -181 -278 -181q-179 0 -273 216
q-73 165 -73 371l127 70q0 -489 226 -489q180 0 180 376q0 125 34 230.5t97 182.5t151.5 120t196.5 43q114 0 209 -47.5t163 -131t105.5 -195.5t37.5 -241z" />
    <glyph glyph-name="glyph138" horiz-adv-x="316" 
d="M235 -150q0 -133 -25.5 -243.5t-79.5 -189.5t-137.5 -123t-198.5 -44q-51 0 -92.5 17.5t-73.5 45.5t-56 64.5t-39 74t-22.5 73.5t-7.5 64q0 59 16 104.5t44.5 77t66.5 47.5t83 16t84 -16.5t67 -45t44 -67t16 -82.5q0 -17 -5.5 -49t-26.5 -64t-62.5 -56t-113.5 -24
q-14 0 -25.5 1.5t-24.5 6.5q13 -29 47.5 -48t82.5 -19q80 0 138 32t95.5 93t55.5 148t18 197q0 221 -90 400q-36 72 -79.5 128t-97.5 97l56 110q75 -56 134.5 -130.5t107.5 -168.5q101 -204 101 -427zM-204 -376q0 34 -24.5 58.5t-58.5 24.5t-58.5 -24.5t-24.5 -58.5
t24.5 -58.5t58.5 -24.5t58.5 24.5t24.5 58.5z" />
    <glyph glyph-name="glyph139" horiz-adv-x="804" 
d="M724 -150q0 -133 -25.5 -243.5t-79.5 -189.5t-137.5 -123t-198.5 -44q-51 0 -92.5 17.5t-73.5 45.5t-56 64.5t-39 74t-22.5 73.5t-7.5 64q0 59 16 104.5t44.5 77t66.5 47.5t83 16t84 -16.5t67 -45t44 -67t16 -82.5q0 -17 -5.5 -49t-26.5 -64t-62.5 -56t-113.5 -24
q-14 0 -25.5 1.5t-24.5 6.5q13 -29 47.5 -48t82.5 -19q80 0 138 32t95.5 93t55.5 148t18 197q0 221 -90 400q-36 72 -79.5 128t-97.5 97l56 110q75 -56 134.5 -130.5t107.5 -168.5q101 -204 101 -427zM285 -376q0 34 -24.5 58.5t-58.5 24.5t-58.5 -24.5t-24.5 -58.5
t24.5 -58.5t58.5 -24.5t58.5 24.5t24.5 58.5z" />
    <glyph glyph-name="glyph140" horiz-adv-x="1274" 
d="M1186 347q0 -42 -15 -78.5t-41 -63t-62.5 -42t-79.5 -15.5q-42 0 -77.5 16.5t-61.5 44.5t-40.5 66t-14.5 82q0 30 13.5 61.5t31.5 53.5h-346q38 -42 70 -91t60 -104q101 -204 101 -427q0 -133 -25.5 -243.5t-79.5 -189.5t-137.5 -123t-198.5 -44q-51 0 -92.5 17.5
t-73.5 45.5t-56 64.5t-39 74t-22.5 73.5t-7.5 64q0 59 16 104.5t44.5 77t66.5 47.5t83 16t84 -16.5t67 -45t44 -67t16 -82.5q0 -17 -5.5 -49t-26.5 -64t-62.5 -56t-113.5 -24q-14 0 -25.5 1.5t-24.5 6.5q13 -29 47.5 -48t82.5 -19q80 0 138 32t95.5 93t55.5 148t18 197
q0 221 -90 400q-36 72 -79.5 128t-97.5 97l56 110h546q59 0 107 -16.5t81.5 -46.5t52 -72.5t18.5 -93.5zM902 356q0 -29 7 -49t19 -32t27.5 -17.5t32.5 -5.5q42 0 68 26.5t26 68.5q0 48 -32.5 81t-87.5 41q-10 -8 -20.5 -19t-19.5 -25.5t-14.5 -32t-5.5 -36.5zM285 -376
q0 34 -24.5 58.5t-58.5 24.5t-58.5 -24.5t-24.5 -58.5t24.5 -58.5t58.5 -24.5t58.5 24.5t24.5 58.5z" />
    <glyph glyph-name="glyph141" horiz-adv-x="356" 
d="M350 1374q0 -71 -28.5 -129.5t-78.5 -96.5q52 -39 79.5 -94t27.5 -122q0 -64 -24.5 -118.5t-68 -94t-102.5 -61.5t-127 -22q-104 0 -196 40l46 119q66 -31 150 -31q43 0 78.5 10.5t61 30.5t40 48t14.5 64q0 31 -13.5 62t-36 55.5t-51.5 39.5t-61 16h-148v136h157
q32 0 60 13.5t48.5 35.5t32.5 51t12 60q0 35 -19 70t-61 54q6 -14 11.5 -25.5t5.5 -35.5q0 -42 -14 -68t-33.5 -39.5t-40 -18t-34.5 -4.5q-29 0 -52.5 12t-40.5 32t-26.5 47.5t-9.5 57.5q0 41 14.5 74.5t40 57.5t60 37t73.5 13q56 0 102.5 -22.5t80.5 -60t52.5 -88
t18.5 -105.5z" />
    <glyph glyph-name="glyph142" horiz-adv-x="438" 
d="M350 1374q0 -71 -28.5 -129.5t-78.5 -96.5q52 -39 79.5 -94t27.5 -122q0 -64 -24.5 -118.5t-68 -94t-102.5 -61.5t-127 -22q-104 0 -196 40l46 119q66 -31 150 -31q43 0 78.5 10.5t61 30.5t40 48t14.5 64q0 31 -13.5 62t-36 55.5t-51.5 39.5t-61 16h-148v136h157
q32 0 60 13.5t48.5 35.5t32.5 51t12 60q0 35 -19 70t-61 54q6 -14 11.5 -25.5t5.5 -35.5q0 -42 -14 -68t-33.5 -39.5t-40 -18t-34.5 -4.5q-29 0 -52.5 12t-40.5 32t-26.5 47.5t-9.5 57.5q0 41 14.5 74.5t40 57.5t60 37t73.5 13q56 0 102.5 -22.5t80.5 -60t52.5 -88
t18.5 -105.5zM452 -383q0 -81 -21.5 -161t-66 -143.5t-113 -103.5t-161.5 -40q-56 0 -111.5 22.5t-99 68.5t-70.5 117t-27 169q0 43 13 81.5t37.5 67t60 45.5t79.5 17q45 0 80.5 -17t59.5 -45.5t37 -67t13 -81.5q0 -45 -16 -79.5t-41 -58t-55.5 -35.5t-59.5 -12q-16 0 -29 1
t-27 6q40 -87 154 -87q71 0 119 31.5t77.5 80.5t42.5 109t13 117q0 75 -25 140t-70.5 113t-108.5 76t-138 28v112q39 0 69 15.5t50.5 44t31 68t10.5 87.5q0 85 -33 156l105 34q40 -110 40 -208q0 -154 -104 -240q64 -22 117 -64.5t90 -99t57.5 -124.5t20.5 -140zM54 -444
q0 32 -21.5 57.5t-60.5 25.5q-38 0 -60 -25.5t-22 -57.5q0 -30 4.5 -46t12.5 -32q10 -9 25 -11t26 -2q47 0 71.5 26.5t24.5 64.5z" />
    <glyph glyph-name="glyph143" horiz-adv-x="1526" 
d="M1438 505q0 -107 -29.5 -199t-82.5 -160t-127 -107t-163 -39q-66 0 -121 25t-94.5 69.5t-62 105.5t-22.5 133q0 46 14 97t45 93.5t78.5 70t115.5 27.5q30 0 56.5 -11.5t46.5 -31.5t31.5 -47t11.5 -57t-11.5 -56.5t-31.5 -46.5t-46.5 -31.5t-56.5 -11.5q-33 0 -61.5 12.5
t-48.5 35.5q-5 -22 -5 -41q0 -36 12 -66.5t33.5 -53t51.5 -35t65 -12.5q60 0 109.5 27.5t84 75t53.5 112.5t19 140q0 97 -27.5 181t-77.5 146t-119 98t-151 36q-79 0 -143 -33.5t-109.5 -92.5t-70 -141t-24.5 -178q0 -75 -9 -144t-30.5 -129t-56.5 -109t-87 -84t-122.5 -54
t-162.5 -19q-53 0 -109 24t-106.5 59t-90 73.5t-57.5 68.5l91 104q19 -22 50 -50.5t68.5 -54t77.5 -43t76 -17.5q73 0 134 12t105 51.5t68.5 115t24.5 201.5q0 125 34 230.5t97 182.5t151.5 120t196.5 43q114 0 209 -47.5t163 -131t105.5 -195.5t37.5 -241zM350 1374
q0 -71 -28.5 -129.5t-78.5 -96.5q52 -39 79.5 -94t27.5 -122q0 -64 -24.5 -118.5t-68 -94t-102.5 -61.5t-127 -22q-104 0 -196 40l46 119q66 -31 150 -31q43 0 78.5 10.5t61 30.5t40 48t14.5 64q0 31 -13.5 62t-36 55.5t-51.5 39.5t-61 16h-148v136h157q32 0 60 13.5
t48.5 35.5t32.5 51t12 60q0 35 -19 70t-61 54q6 -14 11.5 -25.5t5.5 -35.5q0 -42 -14 -68t-33.5 -39.5t-40 -18t-34.5 -4.5q-29 0 -52.5 12t-40.5 32t-26.5 47.5t-9.5 57.5q0 41 14.5 74.5t40 57.5t60 37t73.5 13q56 0 102.5 -22.5t80.5 -60t52.5 -88t18.5 -105.5z" />
    <glyph glyph-name="glyph144" horiz-adv-x="1000" 
d="M932 984h-465q-53 0 -98 -10.5t-77 -30.5t-50 -49t-18 -66q0 -38 19 -71.5t51 -58.5t75 -39.5t90 -14.5h169v-136h-134q-118 0 -172.5 -49t-54.5 -134q0 -44 15 -80.5t40.5 -65t60 -49t74.5 -30.5l-50 -120q-20 3 -47.5 14t-57.5 30.5t-60 47.5t-54 66.5t-38.5 87
t-14.5 107.5q0 99 38 159.5t101 83.5q-186 84 -186 258q0 64 29 117t79.5 90.5t120 58t150.5 20.5h465v-136z" />
    <glyph glyph-name="glyph145" horiz-adv-x="808" 
d="M1072 405q0 -178 -161 -297q-147 -108 -331 -108t-331 108q-161 119 -161 297q0 100 71 188q62 78 160 127h-231v96h400v168h-400v136h774v-136h-178v-168h388v-96h-207q207 -116 207 -315zM936 411q0 119 -125 187q-102 56 -231 56t-231 -56q-125 -68 -125 -187
t125 -187q102 -56 231 -56t231 56q125 68 125 187z" />
    <glyph glyph-name="glyph146" horiz-adv-x="1188" 
d="M1408 497q0 -192 -82 -331q-99 -166 -278 -166q-177 0 -313 177q-125 -177 -336 -177q-129 0 -218 79q-93 81 -93 209q0 123 90 196q83 68 209 68q84 0 173 -38q95 -39 144 -101q20 58 20 142q0 182 -76 303q-20 -73 -80.5 -119.5t-136.5 -46.5q-93 0 -158.5 66
t-65.5 158q0 93 66 158.5t160 65.5q190 0 317 -207q110 -180 110 -383q0 -123 -51 -247q103 -135 230 -135q118 0 181 114q52 93 52 221q0 137 -58 265q-59 132 -162 216h-164v136h330v-136q190 -224 190 -487zM562 945q-48 59 -131 59q-36 0 -62 -26t-26 -62t26 -62t62 -26
q48 0 86 35q35 34 45 82zM640 285q-105 131 -254 131q-62 0 -108 -28q-54 -34 -54 -92q0 -65 66 -100q54 -28 125 -28q148 0 225 117z" />
    <glyph glyph-name="glyph147" horiz-adv-x="942" 
d="M1160 440v-440h-136v440q0 197 -99 354q-115 182 -301 182t-301 -182q-99 -157 -99 -354v-440h-136v440q0 340 214 544h-214v136h858v-136q214 -204 214 -544z" />
    <glyph glyph-name="glyph148" horiz-adv-x="1454" 
d="M989 0q-175 0 -277 138q-101 -138 -273 -138q-75 0 -139.5 29t-111.5 79.5t-73.5 118.5t-26.5 147q0 60 19 122t57.5 113t95.5 83t134 32q42 0 75 -8.5t57 -20.5t40.5 -25t26.5 -22l-88 -113q-6 5 -17.5 14t-26.5 17.5t-32 14.5t-33 6q-39 0 -70.5 -17t-54 -45t-35 -63.5
t-12.5 -72.5q0 -45 16.5 -85.5t44.5 -70.5t66 -47.5t81 -17.5q48 0 87 17t67 46.5t43.5 69.5t15.5 87h136q0 -46 15 -86t42.5 -70t65.5 -47t85 -17q49 0 88 17t66.5 46.5t42 69.5t14.5 87q0 50 -11 87.5t-34.5 67t-60 54t-86.5 47.5l60 120q18 -12 34.5 -24t35.5 -22
t41.5 -16.5t51.5 -6.5q43 0 79 20.5t62 55.5t40 83t14 79v37q0 7 -1 14h-1337v136h1289q-43 61 -135 118l60 114q143 -87 210 -232h144v-136h-107q1 -8 1 -17q0 -87 -21 -152.5t-58.5 -117.5t-88.5 -86t-111 -42q65 -76 65 -192q0 -81 -25.5 -150t-71 -119t-109.5 -78.5
t-141 -29.5zM808 -169q0 -43 -26.5 -73t-69.5 -30q-96 0 -96 103q0 20 8.5 49.5t22.5 59.5t31 55t34 37q15 -11 32 -36.5t31.5 -55.5t23.5 -60t9 -49zM848 712q0 -40 -28 -68t-68 -28t-68 28t-28 68t28 68t68 28t68 -28t28 -68z" />
    <glyph glyph-name="glyph149" horiz-adv-x="1270" 
d="M1336 381q0 -80 -26.5 -149.5t-73.5 -121t-110.5 -81t-137.5 -29.5q-174 0 -276 138q-101 -138 -273 -138q-76 0 -140.5 27.5t-111 76.5t-73 116t-26.5 145q0 53 9 96.5t30.5 79.5t56 66t85.5 56q54 28 85 56t47 54.5t20.5 49.5t4.5 41q0 63 -36 101.5t-99 38.5
q-26 0 -49.5 -8.5t-40.5 -23.5t-27 -36t-10 -46q0 -46 20 -68l-116 -68q-40 52 -40 140q0 52 21 97t57 78t84 52t103 19q89 0 152.5 -43t92.5 -116q81 70 184.5 114.5t221.5 44.5q67 0 127 -21.5t105 -61.5t71.5 -95.5t26.5 -122.5h-136q0 82 -52 123.5t-136 41.5
q-63 0 -120.5 -15.5t-107.5 -42t-91 -62t-72 -74.5q-7 -58 -30.5 -99t-56.5 -71t-71.5 -52.5t-75.5 -44.5q-12 -7 -29.5 -20t-33 -33t-27 -47t-11.5 -62q0 -45 16 -83.5t44 -67.5t66 -45.5t82 -16.5q48 0 87 17t67 46.5t43.5 69.5t15.5 87h136q0 -46 14.5 -86t41.5 -70
t65.5 -47t85.5 -17q44 0 82.5 17t67.5 46t45.5 67.5t16.5 82.5q0 35 -12 68t-33.5 60.5t-50.5 48t-63 31.5l37 128q54 -15 101.5 -48.5t82 -78.5t54.5 -99t20 -110zM848 604q0 -40 -28 -68t-68 -28t-68 28t-28 68t28 68t68 28t68 -28t28 -68z" />
    <glyph glyph-name="glyph150" horiz-adv-x="1116" 
d="M1336 381q0 -80 -26.5 -149.5t-73.5 -121t-110.5 -81t-137.5 -29.5q-174 0 -276 138q-101 -138 -273 -138q-76 0 -140.5 27.5t-111 76.5t-73 116t-26.5 145q0 53 9 96.5t30.5 79.5t56 66t85.5 56q54 28 85 56t47 54.5t20.5 49.5t4.5 41q0 63 -36 101.5t-99 38.5
q-26 0 -49.5 -8.5t-40.5 -23.5t-27 -36t-10 -46q0 -46 20 -68l-116 -68q-40 52 -40 140q0 52 21 97t57 78t84 52t103 19q61 0 111 -21t85 -59t54 -90t19 -113q0 -72 -21.5 -121t-56 -84t-76.5 -60t-83 -49q-12 -7 -29.5 -20t-33 -33t-27 -47t-11.5 -62q0 -45 16 -83.5
t44 -67.5t66 -45.5t82 -16.5q48 0 87 17t67 46.5t43.5 69.5t15.5 87h136q0 -46 14.5 -86t41.5 -70t65.5 -47t85.5 -17q44 0 82.5 17t67.5 46t45.5 67.5t16.5 82.5q0 33 -10.5 64.5t-29 59t-44.5 49t-56 34.5h-270v136h246q21 0 41 11.5t35 30.5t24 43t9 50q0 20 -8.5 42
t-23.5 40.5t-34.5 30.5t-41.5 12h-247v136h427v-134q64 -64 64 -130q0 -70 -35 -132h90v-136h-73q34 -45 53.5 -98t19.5 -109z" />
    <glyph glyph-name="glyph151" horiz-adv-x="1116" 
d="M1336 562q0 -202 -92 -365q-110 -197 -296 -197q-146 0 -236 138q-90 -138 -234 -138q-186 0 -297 196q-93 164 -93 366q0 186 60 352q81 226 234 226q95 0 159 -78q59 -73 59 -170t-59 -170q-64 -78 -159 -78q-90 0 -147 64q-11 -52 -11 -142q0 -143 52 -254
q67 -144 194 -144q86 0 133 70q42 61 42 150h136q0 -89 42 -150q47 -70 133 -70q126 0 193 144q51 111 51 254q0 281 -150 385q-49 33 -86 33h-174v136h402v-134q144 -180 144 -424zM808 -169q0 -43 -26.5 -73t-69.5 -30q-96 0 -96 103q0 44 31 110.5t65 90.5
q33 -23 64.5 -91t31.5 -110zM483 892q0 40 -31 76t-70 36q-79 0 -121 -166q57 -76 121 -76q47 0 76 43q25 38 25 87z" />
    <glyph glyph-name="glyph152" horiz-adv-x="1116" 
d="M1336 381q0 -80 -26.5 -149.5t-73.5 -121t-110.5 -81t-137.5 -29.5q-174 0 -276 138q-101 -138 -273 -138q-76 0 -140.5 27.5t-111 76.5t-73 116t-26.5 145q0 53 9 96.5t30.5 79.5t56 66t85.5 56q54 28 85 56t47 54.5t20.5 49.5t4.5 41q0 63 -36 101.5t-99 38.5
q-26 0 -49.5 -8.5t-40.5 -23.5t-27 -36t-10 -46q0 -46 20 -68l-116 -68q-40 52 -40 140q0 52 21 97t57 78t84 52t103 19q52 0 95.5 -15t77 -43t56 -66.5t32.5 -85.5q35 -35 89 -60.5t126 -25.5q36 0 67 6t54.5 16.5t37 26t13.5 33.5t-7 29.5t-25.5 17.5t-52 8.5t-86.5 2.5
v136h352v-136h-56q11 -30 11 -60q0 -49 -23.5 -89t-63.5 -68.5t-94.5 -44t-115.5 -15.5q-39 0 -70.5 4.5t-58.5 13.5t-50.5 21.5t-47.5 29.5q-12 -48 -36 -83t-55 -61.5t-67 -47.5t-70 -41q-12 -7 -29.5 -20t-33 -33t-27 -47t-11.5 -62q0 -45 16 -83.5t44 -67.5t66 -45.5
t82 -16.5q48 0 87 17t67 46.5t43.5 69.5t15.5 87h136q0 -46 14.5 -86t41.5 -70t65.5 -47t85.5 -17q44 0 82.5 17t67.5 46t45.5 67.5t16.5 82.5q0 35 -12 68t-33.5 60.5t-50.5 48t-63 31.5l37 128q54 -15 101.5 -48.5t82 -78.5t54.5 -99t20 -110z" />
    <glyph glyph-name="glyph153" horiz-adv-x="2038" 
d="M2170 471q0 -192 -96 -323q-107 -148 -292 -148q-202 0 -312 167q-111 -167 -306 -167q-199 0 -315 201q-117 -201 -330 -201q-193 0 -320 198q-111 173 -111 378q0 245 146 408h-146v136h708q46 0 79 51q30 45 30 94q0 48 -30 91q-33 46 -78 53l11 136q99 -9 168 -97
q65 -84 65 -186q0 -97 -70 -183q-73 -91 -167 -95q146 -163 146 -408q0 -33 -11 -97.5t-11 -97.5q0 -92 74 -154q70 -59 164 -59q120 0 189 92q61 83 61 207q0 386 -267 564l69 119q334 -235 334 -679q0 -17 -3.5 -51t-3.5 -51q0 -84 79 -145q74 -56 160 -56q119 0 188 92
q62 84 62 207q0 362 -239 517h-63v136h298v-136h-54q194 -185 194 -513zM1566 -169q0 -43 -27 -73t-69 -30q-44 0 -70 29.5t-26 73.5q0 45 30.5 110.5t65.5 90.5q33 -24 64.5 -91t31.5 -110zM814 576q0 150 -69 268q-82 140 -221 140q-140 0 -226 -139q-74 -119 -74 -269
t74 -269q86 -139 226 -139q139 0 221 140q69 118 69 268z" />
    <glyph glyph-name="glyph154" horiz-adv-x="1686" 
d="M1736 846h-137q0 65 -46 111.5t-111 46.5q-105 0 -135 -89q29 -81 29 -167q0 -249 -205 -477q104 -92 204 -192l-104 -99q-60 66 -187 193q-176 -173 -356 -173q-113 0 -192 70q-82 72 -82 184q0 119 84 189q78 65 200 65q98 0 178 -42q45 -23 150 -105q174 172 174 393
q0 106 -51 174q-57 76 -159 76q-88 0 -149 -62.5t-61 -151.5v-126h-136v126q0 87 -61.5 150.5t-148.5 63.5q-88 0 -148.5 -62.5t-60.5 -150.5q0 -73 44 -132t114 -76l-38 -132q-114 33 -185 127t-71 213q0 145 100.5 247t244.5 102q184 0 278 -144q40 65 121 106
q77 38 157 38q144 0 235 -94q78 94 217 94q121 0 207.5 -86.5t86.5 -207.5zM936 268q-113 107 -238 107q-52 0 -96 -26q-52 -30 -52 -78q0 -49 52 -78q43 -25 96 -25q135 0 238 100z" />
    <glyph glyph-name="glyph155" horiz-adv-x="1116" 
d="M1336 374q0 -156 -97 -263q-100 -111 -254 -111q-173 0 -273 138q-100 -138 -273 -138q-154 0 -254 111q-97 107 -97 263q0 163 110 267q-99 76 -99 216q0 123 71 201q74 82 195 82q107 0 181 -73l-97 -97q-35 34 -84 34q-61 0 -95.5 -42.5t-34.5 -104.5q0 -96 86 -122
q39 -12 163 -12v-135h-111q-72 0 -114 -66q-35 -56 -35 -133q0 -89 60 -155t148 -66q94 0 153.5 62.5t59.5 157.5h136q0 -95 58.5 -157.5t152.5 -62.5q88 0 148 66t60 155q0 77 -35 133q-41 66 -114 66h-111v134h88q63 0 109 30q52 35 52 95q0 137 -130 137h-227v136h458
v-135q35 -63 35 -138q0 -131 -99 -206q110 -104 110 -267z" />
    <glyph glyph-name="glyph156" horiz-adv-x="942" 
d="M1200 560q0 -231 -162.5 -395.5t-393.5 -164.5t-393.5 164.5t-162.5 395.5q0 256 193 424h-193v136h962v-136h-43q193 -168 193 -424zM1052 576q0 169 -119.5 288.5t-288.5 119.5t-288.5 -119.5t-119.5 -288.5t119.5 -288.5t288.5 -119.5t288.5 119.5t119.5 288.5z
M740 588q0 -40 -28 -68t-68 -28t-68 28t-28 68t28 68t68 28t68 -28t28 -68z" />
    <glyph glyph-name="glyph157" horiz-adv-x="1116" 
d="M1336 361q0 -152 -103.5 -256.5t-255.5 -104.5q-163 0 -265 138q-102 -138 -264 -138q-165 0 -267 136q-93 124 -93 295q0 357 242 553h-242v136h1068v-136h-70q120 -112 120 -275q0 -32 -7 -62q63 -40 102 -126q35 -79 35 -160zM1200 351q0 124 -72 175
q-55 -47 -124 -47q-57 0 -96 37t-39 93q0 47 35 88.5t82 41.5q60 0 94 -17q0 124 -122 198q-103 64 -235 64q-222 0 -363 -158q-136 -153 -136 -382q0 -112 49 -187q57 -89 163 -89q92 0 152 64q57 63 57 156h136q0 -93 57 -156.5t150 -63.5q84 0 145 49q67 53 67 134z" />
    <glyph glyph-name="glyph158" horiz-adv-x="1116" 
d="M1336 361q0 -152 -103.5 -256.5t-255.5 -104.5q-163 0 -265 138q-102 -138 -264 -138q-165 0 -267 136q-93 124 -93 295q0 357 242 553h-242v136h1068v-136h-70q120 -112 120 -275q0 -32 -7 -62q63 -40 102 -126q35 -79 35 -160zM808 -169q0 -43 -26.5 -73t-69.5 -30
q-96 0 -96 103q0 44 31 110.5t65 90.5q33 -23 64.5 -91t31.5 -110zM1200 351q0 124 -72 175q-55 -47 -124 -47q-57 0 -96 37t-39 93q0 47 35 88.5t82 41.5q60 0 94 -17q0 124 -122 198q-103 64 -235 64q-222 0 -363 -158q-136 -153 -136 -382q0 -112 49 -187q57 -89 163 -89
q92 0 152 64q57 63 57 156h136q0 -93 57 -156.5t150 -63.5q84 0 145 49q67 53 67 134z" />
    <glyph glyph-name="glyph159" horiz-adv-x="1006" 
d="M1136 984h-1048v136h1048v-136zM1250 445q0 -171 -73 -295q-88 -150 -247 -150q-98 0 -158 64t-60 163q0 89 54.5 146.5t143.5 57.5q115 0 181 -138q19 66 19 139q0 128 -50 222q-62 117 -179 117q-75 0 -125.5 -46.5t-50.5 -120.5h-141q0 74 -50.5 120.5t-125.5 46.5
q-159 0 -159 -122q0 -55 37 -91t92 -36h56v-122h-56q-129 0 -129 -136q0 -50 30.5 -83t79.5 -33q116 0 115 116h141q0 -111 -72.5 -187.5t-183.5 -76.5q-108 0 -179.5 74t-71.5 182q0 147 101 205q-101 64 -101 187q0 117 94 185q84 60 206 60q159 0 246 -102
q87 102 247 102q185 0 283 -136q86 -120 86 -312zM1033 206q-33 116 -123 116q-33 0 -61 -31t-28 -64q0 -43 23 -74q25 -35 66 -35q36 0 73 27t50 61z" />
    <glyph glyph-name="glyph160" horiz-adv-x="1116" 
d="M1336 426q0 -212 -216 -330q-177 -96 -408 -96t-408 96q-216 118 -216 330q0 113 70 200q67 83 177 118l59 -111q-171 -60 -171 -191q0 -147 176 -220q131 -54 302 -54t309 53q190 72 190 216q0 134 -99 204q-25 -73 -109 -125q-80 -49 -161 -49q-96 0 -159 55
q-67 59 -67 153q0 93 74 149q68 51 164 51q95 0 160 -46q-9 71 -109 117q-84 38 -165 38h-641v136h969v-136h-60q130 -76 130 -210q209 -112 209 -348zM993 709q-62 39 -124 39q-128 0 -128 -78q0 -67 84 -67q49 0 101.5 31t66.5 75z" />
    <glyph glyph-name="glyph161" horiz-adv-x="1116" 
d="M1336 431q0 -171 -93 -295q-102 -136 -267 -136q-162 0 -264 138q-102 -138 -264 -138q-165 0 -267 136q-93 124 -93 295q0 354 252 553h-252v136h1128v-136h-132q252 -199 252 -553zM808 -169q0 -43 -26.5 -73t-69.5 -30q-96 0 -96 103q0 44 31 110.5t65 90.5
q33 -23 64.5 -91t31.5 -110zM1200 444q0 214 -137 373q-143 167 -351 167t-351 -167q-137 -159 -137 -373q0 -112 49 -187q57 -89 163 -89q92 0 152 64q57 63 57 156h136q0 -93 57 -156.5t150 -63.5q106 0 163 89q49 75 49 187zM808 712q0 -40 -28 -68t-68 -28t-68 28
t-28 68t28 68t68 28t68 -28t28 -68z" />
    <glyph glyph-name="glyph162" horiz-adv-x="1116" 
d="M1336 431q0 -171 -93 -295q-102 -136 -267 -136q-162 0 -264 138q-102 -138 -264 -138q-165 0 -267 136q-93 124 -93 295q0 354 252 553h-252v136h1128v-136h-132q252 -199 252 -553zM1200 444q0 214 -137 373q-143 167 -351 167t-351 -167q-137 -159 -137 -373
q0 -112 49 -187q57 -89 163 -89q92 0 152 64q57 63 57 156h136q0 -93 57 -156.5t150 -63.5q106 0 163 89q49 75 49 187z" />
    <glyph glyph-name="glyph163" horiz-adv-x="1116" 
d="M1336 431q0 -171 -93 -295q-102 -136 -267 -136q-162 0 -264 138q-102 -138 -264 -138q-165 0 -267 136q-93 124 -93 295q0 354 252 553h-252v136h1128v-136h-132q252 -199 252 -553zM808 -169q0 -43 -26.5 -73t-69.5 -30q-96 0 -96 103q0 44 31 110.5t65 90.5
q33 -23 64.5 -91t31.5 -110zM1200 444q0 214 -137 373q-143 167 -351 167t-351 -167q-137 -159 -137 -373q0 -112 49 -187q57 -89 163 -89q92 0 152 64q57 63 57 156h136q0 -93 57 -156.5t150 -63.5q106 0 163 89q49 75 49 187z" />
    <glyph glyph-name="glyph164" horiz-adv-x="1116" 
d="M1336 452q0 -101 -26 -184.5t-73 -143t-113 -92t-145 -32.5q-71 0 -121.5 24t-89 67t-69 102t-60.5 128q-18 41 -40 77t-52 62.5t-68.5 42t-88.5 15.5q-42 0 -73.5 -18.5t-52.5 -47t-32 -64t-11 -69.5q0 -47 13 -86t32 -71t39 -57t35 -44l-119 -81q-33 31 -58 69.5
t-42.5 81t-26.5 87.5t-9 90q0 70 21 133t60.5 110t95.5 75t126 28q135 0 225.5 -65.5t149.5 -196.5q24 -53 47.5 -95t49 -70.5t54.5 -43.5t65 -15q62 0 104.5 20t68.5 57t37 89.5t11 117.5q0 56 -15.5 117t-44 120.5t-68 112.5t-87 93.5t-101.5 64.5t-111 24h-685v136h1108
v-136h-106q246 -194 246 -532z" />
    <glyph glyph-name="glyph165" horiz-adv-x="1116" 
d="M1336 407q0 -84 -25.5 -158t-71.5 -129t-110 -87t-140 -33q-175 0 -277 138q-101 -138 -273 -138q-75 0 -139.5 29t-111.5 79.5t-73.5 118.5t-26.5 147q0 60 19 122t57.5 113t95.5 83t134 32q42 0 75 -8.5t57 -20.5t40.5 -25t26.5 -22l-88 -113q-6 5 -17.5 14t-26.5 17.5
t-32 14.5t-33 6q-39 0 -70.5 -17t-54 -45t-35 -63.5t-12.5 -72.5q0 -45 16.5 -85.5t44.5 -70.5t66 -47.5t81 -17.5q48 0 87 17t67 46.5t43.5 69.5t15.5 87h136q0 -46 15 -86t42.5 -70t65.5 -47t85 -17q47 1 86 21t66.5 54t43 79t15.5 96q0 224 -215 361l63 125
q75 -55 127.5 -107t84.5 -102q76 -119 76 -288zM848 712q0 -40 -28 -68t-68 -28t-68 28t-28 68t28 68t68 28t68 -28t28 -68zM1136 984h-1048v136h1048v-136z" />
    <glyph glyph-name="glyph166" horiz-adv-x="1116" 
d="M1336 407q0 -84 -25.5 -158t-71.5 -129t-110 -87t-140 -33q-175 0 -277 138q-101 -138 -273 -138q-75 0 -139.5 29t-111.5 79.5t-73.5 118.5t-26.5 147q0 60 19 122t57.5 113t95.5 83t134 32q42 0 75 -8.5t57 -20.5t40.5 -25t26.5 -22l-88 -113q-6 5 -17.5 14t-26.5 17.5
t-32 14.5t-33 6q-39 0 -70.5 -17t-54 -45t-35 -63.5t-12.5 -72.5q0 -45 16.5 -85.5t44.5 -70.5t66 -47.5t81 -17.5q48 0 87 17t67 46.5t43.5 69.5t15.5 87h136q0 -46 15 -86t42.5 -70t65.5 -47t85 -17q47 1 86 21t66.5 54t43 79t15.5 96q0 224 -215 361l63 125
q75 -55 127.5 -107t84.5 -102q76 -119 76 -288zM848 712q0 -40 -28 -68t-68 -28t-68 28t-28 68t28 68t68 28t68 -28t28 -68zM1136 984h-1048v136h1048v-136zM808 -169q0 -43 -26.5 -73t-69.5 -30q-96 0 -96 103q0 20 8.5 49.5t22.5 59.5t31 55t34 37q15 -11 32 -36.5
t31.5 -55.5t23.5 -60t9 -49z" />
    <glyph glyph-name="glyph167" horiz-adv-x="1116" 
d="M1156 1120v-133q85 -118 132.5 -246t47.5 -270q0 -98 -25 -183.5t-71 -149t-109.5 -100.5t-139.5 -38q-88 0 -158 34.5t-121 103.5q-101 -138 -273 -138q-76 0 -140.5 27.5t-111 76.5t-73 116t-26.5 145q0 53 9 96.5t30.5 79.5t56 66t85.5 56q54 28 85 56t47 54.5
t20.5 49.5t4.5 41q0 63 -36 101.5t-99 38.5q-26 0 -49.5 -8.5t-40.5 -23.5t-27 -36t-10 -46q0 -46 20 -68l-116 -68q-40 52 -40 140q0 52 21 97t57 78t84 52t103 19q61 0 111 -21t85 -59t54 -90t19 -113q0 -72 -21.5 -121t-56 -84t-76.5 -60t-83 -49q-12 -7 -29.5 -20
t-33 -33t-27 -47t-11.5 -62q0 -45 16 -83.5t44 -67.5t66 -45.5t82 -16.5q48 0 87 17t67 46.5t43.5 69.5t15.5 87h136q0 -46 15 -86t42.5 -70t66.5 -47t86 -17q48 2 87 24.5t66 62t41.5 93.5t14.5 119q0 283 -212 518l-200 -1v136h368z" />
    <glyph glyph-name="glyph168" horiz-adv-x="1116" 
d="M1156 1120v-133q85 -118 132.5 -246t47.5 -270q0 -98 -25 -183.5t-71 -149t-109.5 -100.5t-139.5 -38q-88 0 -158 34.5t-121 103.5q-101 -138 -273 -138q-76 0 -140.5 27.5t-111 76.5t-73 116t-26.5 145q0 53 9 96.5t30.5 79.5t56 66t85.5 56q54 28 85 56t47 54.5
t20.5 49.5t4.5 41q0 63 -36 101.5t-99 38.5q-26 0 -49.5 -8.5t-40.5 -23.5t-27 -36t-10 -46q0 -46 20 -68l-116 -68q-40 52 -40 140q0 52 21 97t57 78t84 52t103 19q61 0 111 -21t85 -59t54 -90t19 -113q0 -72 -21.5 -121t-56 -84t-76.5 -60t-83 -49q-12 -7 -29.5 -20
t-33 -33t-27 -47t-11.5 -62q0 -45 16 -83.5t44 -67.5t66 -45.5t82 -16.5q48 0 87 17t67 46.5t43.5 69.5t15.5 87h136q0 -46 15 -86t42.5 -70t66.5 -47t86 -17q48 2 87 24.5t66 62t41.5 93.5t14.5 119q0 283 -212 518l-200 -1v136h368zM808 -169q0 -43 -26.5 -73t-69.5 -30
q-96 0 -96 103q0 20 8.5 49.5t22.5 59.5t31 55t34 37q15 -11 32 -36.5t31.5 -55.5t23.5 -60t9 -49z" />
    <glyph glyph-name="glyph169" horiz-adv-x="1828" 
d="M1850 1120v-136h-52q82 -104 122 -236.5t40 -276.5q0 -113 -28 -200.5t-79 -147.5t-122.5 -91.5t-158.5 -31.5q-196 0 -306 158q-96 -158 -280 -158q-173 1 -274 138q-101 -138 -273 -138q-75 0 -139.5 29t-111.5 79.5t-73.5 118.5t-26.5 147q0 60 19 122t57.5 113
t95.5 83t134 32q42 0 75 -8.5t57 -20.5t40.5 -25t26.5 -22l-88 -113q-6 5 -17.5 14t-26.5 17.5t-32 14.5t-33 6q-39 0 -70.5 -17t-54 -45t-35 -63.5t-12.5 -72.5q0 -45 16.5 -85.5t44.5 -70.5t66 -47.5t81 -17.5q48 0 87 17t67 46.5t43.5 69.5t15.5 87h136q0 -46 15 -86
t42.5 -70t65.5 -47t85 -17q48 1 87 22t66.5 57.5t42.5 87t15 109.5q0 120 -50 219t-137.5 170.5t-206 111t-256.5 39.5h-462v136h1013q25 0 47 12t38.5 32.5t25.5 46.5t9 54q0 27 -8 52t-22.5 44.5t-34.5 32t-43 14.5l11 136q49 -5 91.5 -29.5t74 -62t49.5 -85.5t18 -102
q0 -57 -19.5 -108t-53 -89.5t-79.5 -61t-99 -22.5h-82q69 -39 126.5 -99.5t98.5 -133t64 -152.5t23 -158q0 -26 -1 -38.5t-1 -30.5q0 -40 19.5 -76.5t52.5 -65t76.5 -45.5t91.5 -17q57 0 103 22.5t78.5 62.5t50.5 94.5t18 119.5q0 218 -60.5 336t-178.5 181h-63v136h328z
" />
    <glyph glyph-name="glyph170" horiz-adv-x="2038" 
d="M2170 471q0 -192 -96 -323q-107 -148 -292 -148q-202 0 -312 167q-111 -167 -306 -167q-199 0 -315 201q-117 -201 -330 -201q-193 0 -320 198q-111 173 -111 378q0 204 111 364q125 180 320 180t320 -180q111 -160 111 -364q0 -33 -11 -97.5t-11 -97.5q0 -92 74 -154
q70 -59 164 -59q120 0 189 92q61 83 61 207q0 314 -249 517h-223v136h297q46 0 79 51q30 45 30 94q0 48 -31 92.5t-77 51.5l11 136q99 -9 168 -97q65 -84 65 -186q0 -166 -151 -251q217 -206 217 -540q0 -17 -3.5 -51t-3.5 -51q0 -84 79 -145q74 -56 160 -56q119 0 188 92
q62 84 62 207q0 324 -249 517h-53v136h318v-136h-59q179 -183 179 -513zM814 576q0 150 -69 268q-82 140 -221 140q-140 0 -226 -139q-74 -119 -74 -269t74 -269q86 -139 226 -139q139 0 221 140q69 118 69 268z" />
    <glyph glyph-name="glyph171" horiz-adv-x="942" 
d="M1200 560q0 -231 -162.5 -395.5t-393.5 -164.5t-393.5 164.5t-162.5 395.5q0 256 193 424h-193v136h962v-136h-43q193 -168 193 -424zM1052 576q0 169 -119.5 288.5t-288.5 119.5t-288.5 -119.5t-119.5 -288.5t119.5 -288.5t288.5 -119.5t288.5 119.5t119.5 288.5z" />
    <glyph glyph-name="glyph172" horiz-adv-x="1260" 
d="M1336 562q0 -202 -92 -366q-110 -196 -296 -196q-146 0 -236 138q-90 -138 -234 -138q-186 0 -297 196q-93 164 -93 366q0 187 61 354q81 224 233 224q95 0 158 -78q60 -73 60 -170q0 -59 -23 -112h270q-23 53 -23 112q0 97 60 170q63 78 158 78q152 0 233 -224
q61 -167 61 -354zM1200 566q0 121 -32 253q-46 185 -126 185q-38 0 -61 -39q-20 -33 -20 -73q0 -41 20 -73q23 -39 61 -39v-136h-660q-92 0 -149 64q-9 -63 -9 -142q0 -144 52 -255q67 -143 194 -143q85 0 133 70q42 61 42 150h136q0 -89 42 -150q48 -70 133 -70
q126 0 193 143q51 111 51 255zM483 892q0 40 -31 78t-70 38q-78 0 -121 -170q58 -76 121 -76q47 0 76 43q25 38 25 87z" />
    <glyph glyph-name="glyph173" horiz-adv-x="1116" 
d="M1336 606q0 -272 -177 -441q-174 -165 -447 -165t-447 165q-177 169 -177 441q0 168 69 331q86 203 225 203q95 0 159 -78q59 -73 59 -170t-59 -170q-64 -78 -159 -78q-90 0 -147 64q-11 -51 -11 -109q0 -199 148 -319q137 -112 340 -112t341 112q147 120 147 319
q0 227 -122 385h-180v136h342v-135q96 -164 96 -379zM483 892q0 40 -31 76t-70 36q-82 0 -124 -165q58 -77 124 -77q47 0 76 43q25 38 25 87z" />
    <glyph glyph-name="glyph174" horiz-adv-x="1116" 
d="M1280 842q0 -141 -109 -243q-78 -73 -236 -141q74 -65 74 -170q0 -122 -87.5 -205t-209.5 -83t-209.5 83t-87.5 205q0 105 74 170q-401 141 -401 459q0 93 65.5 158t158.5 65t158.5 -65.5t65.5 -158.5q0 -81 -53.5 -145.5t-132.5 -74.5q124 -101 362 -136q190 46 271 85
q161 78 161 203q0 63 -40.5 99.5t-104.5 36.5h-120v136h371v-136h-26q56 -66 56 -142zM400 916q0 36 -26 62t-62 26q-37 0 -68 -26t-31 -62q0 -76 44 -134q143 18 143 134zM873 289q0 61 -51 99q-47 36 -110 36t-110 -36q-51 -38 -51 -99q0 -60 53 -93q45 -28 108 -28
t108 28q53 33 53 93z" />
    <glyph glyph-name="glyph175" horiz-adv-x="1116" 
d="M1336 441q0 -89 -18 -156.5t-47 -116.5t-66.5 -81.5t-76.5 -51.5t-76 -27t-66 -8q-172 0 -274 138q-101 -138 -273 -138q-75 0 -139.5 29t-111.5 79.5t-73.5 118.5t-26.5 147q0 60 19 122t57.5 113t95.5 83t134 32q42 0 75 -8.5t57 -20.5t40.5 -25t26.5 -22l-88 -113
q-6 5 -17.5 14t-26.5 17.5t-32 14.5t-33 6q-39 0 -70.5 -17t-54 -45t-35 -63.5t-12.5 -72.5q0 -45 16.5 -85.5t44.5 -70.5t66 -47.5t81 -17.5q48 0 87 17t67 46.5t43.5 69.5t15.5 87h136q0 -46 15 -86t42.5 -70t65.5 -47t85 -17q48 1 87 22t66.5 57.5t42.5 87t15 109.5
q0 120 -50 219t-137.5 170.5t-206 111t-256.5 39.5h-462v136h1018v-136h-82q69 -39 126.5 -99.5t98.5 -133t64 -152.5t23 -158z" />
    <glyph glyph-name="glyph176" horiz-adv-x="1116" 
d="M1200 526q0 -114 -42.5 -210.5t-117.5 -166.5t-177 -109.5t-221 -39.5q-90 0 -171 25.5t-142.5 71t-98 108t-36.5 135.5q0 141 134 209q63 26 125 53t125 53q134 80 134 252v45q-45 16 -99 24t-121 8q12 -29 16.5 -49.5t4.5 -41.5q0 -35 -11 -65t-29.5 -52t-44 -34.5
t-54.5 -12.5q-27 0 -55 8.5t-51 28t-37.5 51t-14.5 76.5q0 52 19 91h-147v136h1022v-136h-189q279 -179 279 -458zM1064 545q0 226 -227 357q0 -198 -131 -306q-50 -41 -244 -128q-132 -59 -132 -135q0 -35 27.5 -65t72 -52.5t99 -35t108.5 -12.5q92 0 170 27.5t135 77.5
t89.5 119t32.5 153z" />
    <glyph glyph-name="glyph177" horiz-adv-x="1116" 
d="M1264 -6l-69 82q-43 -35 -94.5 -55t-111.5 -21q-175 0 -277 138q-101 -138 -273 -138q-75 0 -139.5 29t-111.5 79.5t-73.5 118.5t-26.5 147q0 60 19 122t57.5 113t95.5 83t134 32q42 0 75 -8.5t57 -20.5t40.5 -25t26.5 -22l-88 -113q-6 5 -17.5 14t-26.5 17.5t-32 14.5
t-33 6q-39 0 -70.5 -17t-54 -45t-35 -63.5t-12.5 -72.5q0 -45 16.5 -85.5t44.5 -70.5t66 -47.5t81 -17.5q48 0 87 17t67 46.5t43.5 69.5t15.5 87h136q0 -46 15 -86t42.5 -70t65.5 -47t85 -17q29 0 54.5 8.5t48.5 22.5l-266 318l94 83l254 -304q26 55 26 122q0 224 -215 361
l63 125q75 -55 127.5 -107t84.5 -102q76 -119 76 -288q0 -66 -15.5 -124t-44.5 -108l83 -98zM1136 984h-1048v136h1048v-136zM848 712q0 -40 -28 -68t-68 -28t-68 28t-28 68t28 68t68 28t68 -28t28 -68z" />
    <glyph glyph-name="glyph178" horiz-adv-x="1116" 
d="M1136 984h-1048v136h1048v-136zM735 800q0 -40 -28 -68t-68 -28t-68 28t-28 68t28 68t68 28t68 -28t28 -68zM1336 452q0 -101 -26 -184.5t-73 -143t-113 -92t-145 -32.5q-71 0 -121.5 24t-89 67t-69 102t-60.5 128q-18 41 -40 77t-52 62.5t-68.5 42t-88.5 15.5
q-42 0 -73.5 -18.5t-52.5 -47t-32 -64t-11 -69.5q0 -47 13 -86t32 -71t39 -57t35 -44l-119 -81q-33 31 -58 69.5t-42.5 81t-26.5 87.5t-9 90q0 70 21 133t60.5 110t95.5 75t126 28q135 0 225.5 -65.5t149.5 -196.5q24 -53 47.5 -95t49 -70.5t54.5 -43.5t65 -15
q62 0 104.5 20t68.5 57t37 89.5t11 117.5q0 191 -164 352l100 100q200 -197 200 -452z" />
    <glyph glyph-name="glyph179" horiz-adv-x="1116" 
d="M1336 401q0 -166 -87 -278q-95 -123 -257 -123q-179 0 -280 138q-101 -138 -280 -138q-162 0 -257 123q-87 112 -87 278t87 278q95 122 257 122q118 0 205 -62q-41 198 -128 245h-421v136h1048v-136h-465q76 -56 109 -251q89 68 212 68q162 0 257 -122q87 -112 87 -278z
M1200 418q0 101 -52 171q-58 76 -156 76q-105 0 -162 -81q-50 -71 -50 -181q0 -96 57 -164q61 -71 155 -71q98 0 156 78q52 70 52 172zM644 403q0 107 -51 180q-58 82 -161 82q-98 0 -156 -76q-52 -70 -52 -171q0 -102 52 -172q58 -78 156 -78q94 0 155 71q57 68 57 164z
" />
    <glyph glyph-name="glyph180" horiz-adv-x="1260" 
d="M1338 562q0 -202 -93 -366q-111 -196 -297 -196q-146 0 -236 138q-90 -138 -234 -138q-186 0 -297 196q-93 164 -93 366q0 186 60 352q81 226 234 226q95 0 159 -78q59 -73 59 -170t-60 -170q-63 -78 -158 -78q-90 0 -147 64q-11 -52 -11 -142q0 -143 52 -255
q67 -143 194 -143q86 0 133 70q42 61 42 150h136q0 -89 42 -150q47 -70 133 -70q127 0 194 144q52 111 52 254q0 90 -11 142q-57 -64 -147 -64q-95 0 -159 78q-59 73 -59 170t60 170q63 78 158 78q153 0 234 -226q60 -166 60 -352zM1165 838q-42 166 -121 166q-39 0 -70 -36
t-31 -76q0 -49 25 -87q29 -43 76 -43q63 0 121 76zM483 892q0 40 -31 76t-70 36q-79 0 -121 -166q58 -76 121 -76q47 0 76 43q25 38 25 87z" />
    <glyph glyph-name="glyph181" horiz-adv-x="454" 
d="M429 -269h-137q73 -73 73 -176q0 -133 -102 -211q-93 -70 -230 -70q-138 0 -230 70q-102 78 -102 211q0 102 73 176h-137v108h364q19 51 19 135q0 94 -51 193l98 52q61 -126 61 -244q0 -87 -12 -136h313v-108zM257 -444q0 87 -71 134q-61 41 -153 41t-154 -41
q-70 -47 -70 -134q0 -88 71 -134q61 -40 153 -40t153 40q71 46 71 134z" />
    <glyph glyph-name="glyph182" horiz-adv-x="338" 
d="M249 -424q0 -129 -64 -211q-71 -91 -197 -91q-106 0 -175 78q-67 -78 -169 -78q-74 0 -126 43q-56 47 -56 119q0 69 53 108q47 35 118 35q87 0 154 -64q5 17 5 48q0 72 -25 135q-34 84 -95 84t-61 -49q0 -20 14 -33l-61 -54q-36 36 -36 92t43 93t101 37q112 0 172 -110
q49 -88 49 -211q0 -59 -23 -109q47 -56 118 -56q79 0 120 66q33 55 33 140q0 101 -45 247q-44 143 -101 230l86 53q168 -287 168 -542zM-258 -575q-49 54 -110 54q-66 0 -66 -48q0 -53 82 -53q55 0 94 47z" />
    <glyph glyph-name="glyph183" horiz-adv-x="0" 
d="M-88 -563v-142h-121v154q0 110 -58 198q-66 101 -170 101q-103 0 -168 -102q-58 -89 -58 -197v-154h-121v148q0 165 89 288q99 137 258 137q163 0 261 -138q88 -124 88 -293z" />
    <glyph glyph-name="glyph184" horiz-adv-x="443" 
d="M355 153q0 -83 -54 -136.5t-137 -53.5q93 -218 93 -387q0 -132 -57 -211q-65 -91 -194 -91q-43 0 -90 24.5t-67 59.5q-20 -35 -74 -61q-50 -23 -94 -23q-92 0 -155 63t-63 154q0 161 161 208l32 -105q-85 -27 -85 -95q0 -47 30.5 -82t76.5 -35q47 0 81.5 28.5t34.5 75.5
v25h112q0 -129 103 -129q140 0 140 194q0 102 -45.5 253t-101.5 236l86 53q10 -19 31 -57q13 -1 25 -1q104 0 104 97q0 59 -43 85l62 82q88 -63 88 -171zM-90 -825q0 -64 -61 -64t-61 64q0 50 61 109q61 -59 61 -109z" />
    <glyph glyph-name="glyph185" horiz-adv-x="0" 
d="M-374 -404q0 -47 -47 -47t-47 47t47 47t47 -47zM-88 -534q0 -87 -57 -139.5t-145 -52.5q-105 0 -162 64q-55 -64 -160 -64q-85 0 -144 55.5t-59 140.5q0 83 55 131q22 19 101 56q55 25 55 55q0 60 -57 60q-53 0 -53 -46h-96q0 61 44.5 101.5t106.5 40.5q89 0 129 -68
q88 68 223 68q80 0 130 -41q53 -44 53 -123h-95q0 68 -84 68q-147 0 -205 -89q-13 -69 -115 -111q-96 -38 -96 -94q0 -46 29 -74.5t75 -28.5q54 0 86 37q30 34 30 89h96q0 -126 113 -126q106 0 106 91q0 73 -87 99l28 91q67 -19 111 -71t44 -119z" />
    <glyph glyph-name="glyph186" horiz-adv-x="252" 
d="M164 -406h-62q26 -46 26 -114q0 -91 -58 -148.5t-149 -57.5q-106 0 -164 66q-56 -66 -163 -66q-87 0 -147.5 57.5t-60.5 144.5q0 85 56 129q23 19 104 51q56 21 56 52q0 61 -58 61q-55 0 -54 -60h-99q0 68 43 113.5t111 45.5q72 0 114 -45.5t42 -118.5q0 -70 -56 -103
l-104 -42q-56 -25 -56 -75q0 -41 32 -67.5t74 -26.5q43 0 80.5 28.5t37.5 70.5v18h98v-18q0 -41 37 -71q34 -28 77 -28q109 0 109 99q0 33 -20 67q-23 38 -54 38h-98v99h98q76 62 76 143q2 44 -41 86l77 68q66 -42 66 -126q0 -123 -63 -171h93v-99z" />
    <glyph glyph-name="glyph187" horiz-adv-x="0" 
d="M-88 -444q0 -133 -71 -212q-63 -70 -151 -70q-93 0 -142 71q-47 -71 -139 -71q-89 0 -153 70q-71 79 -71 212q0 121 41 211q47 101 124 101q53 0 89.5 -41.5t36.5 -99.5t-36.5 -100t-89.5 -42q-37 0 -68 22q-1 -8 -1 -49q0 -95 44 -144q34 -39 80 -39q34 0 63 24
q33 28 33 73v17h96v-17q0 -45 33 -73q28 -24 62 -24q47 0 81 39q43 49 43 144q0 110 -54 166q-36 37 -69 37v96q89 0 154 -93t65 -208zM-390 -825q0 -64 -62 -64q-61 0 -61 64q0 50 61 109q62 -59 62 -109zM-596 -273q0 24 -17 42t-37 18q-27 0 -45 -31q-17 -26 -17 -55
q13 -41 62 -41q19 0 36.5 21t17.5 46z" />
    <glyph glyph-name="glyph188" horiz-adv-x="0" 
d="M-88 -521q0 -87 -57 -146t-145 -59q-110 0 -162 73q-47 -73 -160 -73q-86 0 -144.5 56t-58.5 141q0 83 52 130q22 19 98 55q52 25 52 55q0 61 -57 61q-53 0 -53 -45h-96q0 61 44.5 101t106.5 40q53 0 95.5 -31.5t54.5 -82.5q29 -34 130 -34q155 0 155 118q0 19 -4 40
l95 29q5 -30 5 -57q0 -109 -78 -167q-69 -52 -181 -52q-73 0 -130 22q-21 -49 -113 -86q-80 -33 -80 -88q0 -40 31.5 -66t72.5 -26q116 0 116 98v17h96v-17q0 -46 35 -73q32 -25 78 -25q42 0 74 25.5t32 66.5q0 64 -52 80l78 58q44 -35 56 -57q14 -27 14 -81z" />
    <glyph glyph-name="glyph189" horiz-adv-x="0" 
d="M-88 -472q0 -97 -58 -173q-64 -81 -158 -81q-45 0 -96.5 30.5t-69.5 70.5q-19 -44 -73 -73q-50 -28 -100 -28q-111 0 -170 101q-72 -101 -179 -101t-178 97q-64 87 -64 199t64 200q71 97 178 97q108 0 176 -97q62 -87 62 -199q-1 -25 -4 -51q0 -138 118 -138q55 0 87 54
q27 46 27 105q0 191 -123 221l41 105q193 -69 193 -313q-1 -19 -1 -39q0 -133 117 -133q48 0 78 55q25 46 25 100q0 195 -123 225l41 105q190 -67 190 -339zM-409 -825q0 -64 -61 -64q-62 0 -62 64q0 50 62 109q61 -59 61 -109zM-862 -429q0 67 -31 122q-36 66 -99 66
q-62 0 -101 -66q-34 -56 -34 -123t34 -123q39 -65 101 -65t99 67q31 55 31 122z" />
    <glyph glyph-name="glyph190" horiz-adv-x="0" 
d="M-88 -331q0 -120 -99 -190l-56 76q61 44 61 111q0 41 -29 71.5t-69 30.5q-104 0 -104 -79q0 -12 4.5 -35t4.5 -34q0 -86 -25 -138q64 -64 108 -164l-82 -40q-22 40 -73 117q-74 -121 -201 -121q-76 0 -128 39q-58 44 -58 118q0 76 61 123q55 42 134 42q77 0 153 -44
q9 28 9 66q0 150 -110 150q-105 0 -104 -100h-95q0 100 -91 100q-45 0 -74 -27.5t-29 -72.5q0 -72 72 -107l-45 -81q-120 63 -120 191q0 80 58 138.5t138 58.5q96 0 137 -67q47 67 153 67t156 -80q57 80 151 80q84 0 138 -57.5t54 -141.5zM-520 -544q-54 40 -121 40
q-92 0 -92 -61q0 -60 85 -60q93 0 128 81z" />
    <glyph glyph-name="glyph191" horiz-adv-x="236" 
d="M148 -224q0 -98 -82 -172q68 -45 68 -131q0 -91 -58.5 -145t-150.5 -54q-99 0 -154 64q-58 -67 -149 -67q-95 0 -159 66t-64 161q0 103 64.5 171t166.5 68v-105q-127 0 -127 -118q0 -56 32 -94t87 -38q40 0 68 22q32 23 32 62v17h96v-17q0 -42 34 -68q31 -23 73 -23
q45 0 80.5 25t35.5 68q0 91 -129 91v94q133 0 133 123q0 94 -37 159l89 55q51 -83 51 -214z" />
    <glyph glyph-name="glyph192" horiz-adv-x="0" 
d="M-91 -429q0 -123 -87.5 -210t-210.5 -87t-210 87t-87 210t87 210.5t210 87.5t210.5 -87.5t87.5 -210.5zM-200 -429q0 78 -55 133.5t-134 55.5q-78 0 -133.5 -55.5t-55.5 -133.5t55.5 -133.5t133.5 -55.5q79 0 134 55.5t55 133.5zM-325 -419q0 -64 -64 -64q-63 0 -63 64
t63 64q64 0 64 -64z" />
    <glyph glyph-name="glyph193" horiz-adv-x="0" 
d="M-88 -539q0 -83 -64 -136q-60 -51 -144 -51q-100 0 -156 64q-55 -64 -154 -64q-93 0 -155.5 65t-62.5 158q0 153 114.5 266.5t267.5 113.5q109 0 193 -67q92 -73 92 -186q69 -52 69 -163zM-182 -527q0 46 -27 76q-35 -30 -64 -30q-35 0 -59 22.5t-24 57.5q0 30 22 55
t52 25q20 0 34 -3q-10 49 -76 77q-54 23 -112 23q-115 0 -201 -79t-86 -193q0 -52 28 -89q30 -40 81 -40q43 0 77 22q38 25 38 66v17h96v-17q0 -40 38 -66q33 -22 75 -22q45 0 76.5 27t31.5 71z" />
    <glyph glyph-name="glyph194" horiz-adv-x="0" 
d="M-88 -539q0 -83 -64 -136q-60 -51 -144 -51q-100 0 -156 64q-55 -64 -154 -64q-93 0 -155.5 65t-62.5 158q0 153 114.5 266.5t267.5 113.5q112 0 193 -64q92 -71 92 -189q69 -52 69 -163zM-390 -825q0 -64 -62 -64q-61 0 -61 64q0 50 61 109q62 -59 62 -109zM-182 -527
q0 46 -27 76q-43 -30 -64 -30q-35 0 -59 22.5t-24 57.5q0 30 22 55t52 25q20 0 34 -3q-10 49 -76 77q-54 23 -112 23q-115 0 -201 -79t-86 -193q0 -52 28 -89q30 -40 81 -40q43 0 77 22q38 25 38 66v17h96v-17q0 -40 38 -66q33 -22 75 -22q45 0 76.5 27t31.5 71z" />
    <glyph glyph-name="glyph195" horiz-adv-x="0" 
d="M-88 -442q0 -105 -50 -187q-58 -97 -156 -97q-55 0 -92 45q-34 42 -34 98q0 58 34.5 100.5t91.5 42.5q34 0 65.5 -19t39.5 -42v50q0 77 -30 145q-38 87 -105 87q-45 0 -77.5 -32.5t-32.5 -77.5h-102q0 46 -30.5 75.5t-75.5 29.5q-95 0 -95 -74q0 -86 60 -86h40v-95h-40
q-27 0 -44 -26q-16 -22 -16 -50q0 -70 71 -70q29 0 48.5 21t19.5 50l86 -68q-12 -48 -58 -77q-42 -27 -94 -27q-73 0 -122 43q-52 44 -52 116q0 100 61 135q-61 37 -61 134q0 78 59 128q56 47 137 47q41 0 88 -23.5t68 -56.5q22 33 71.5 56.5t90.5 23.5q114 0 180 -107
q56 -91 56 -212zM-213 -581q-8 22 -33 40t-48 18q-43 0 -43 -60q0 -20 12.5 -40t31.5 -20q52 0 80 62z" />
    <glyph glyph-name="glyph196" horiz-adv-x="0" 
d="M-88 -431q0 -79 -56 -135t-135 -56h-777v108h605q-19 39 -19 83q0 79 56 135t135 56t135 -56t56 -135zM-196 -431q0 34 -24.5 58.5t-58.5 24.5t-58.5 -24.5t-24.5 -58.5t24.5 -58.5t58.5 -24.5t58.5 24.5t24.5 58.5z" />
    <glyph glyph-name="glyph197" horiz-adv-x="0" 
d="M-88 -506q0 -92 -58 -156t-149 -64q-110 0 -161 79q-51 -79 -160 -79q-91 0 -149.5 64t-58.5 156q0 161 104.5 272t265.5 111q160 0 263 -110.5t103 -272.5zM-395 -825q0 -64 -61 -64t-61 64q0 50 61 109q61 -59 61 -109zM-189 -499q0 115 -75 195t-190 80t-192 -80
t-77 -195q0 -52 28.5 -89t79.5 -37q41 0 74.5 26.5t33.5 66.5v21h103v-21q0 -40 35 -67q32 -26 73 -26q51 0 80 39q27 35 27 87zM-395 -374q0 -54 -54 -54t-54 54t54 54t54 -54z" />
    <glyph glyph-name="glyph198" horiz-adv-x="0" 
d="M-88 -506q0 -92 -58 -156t-149 -64q-110 0 -161 79q-51 -79 -160 -79q-91 0 -149.5 64t-58.5 156q0 161 104.5 272t265.5 111q160 0 263 -110.5t103 -272.5zM-189 -499q0 115 -75 195t-190 80t-192 -80t-77 -195q0 -52 28.5 -89t79.5 -37q41 0 74.5 26.5t33.5 66.5v21
h103v-21q0 -40 35 -67q32 -26 73 -26q51 0 80 39q27 35 27 87z" />
    <glyph glyph-name="glyph199" horiz-adv-x="0" 
d="M-88 -506q0 -92 -58 -156t-149 -64q-110 0 -161 79q-51 -79 -160 -79q-91 0 -149.5 64t-58.5 156q0 161 104.5 272t265.5 111q160 0 263 -110.5t103 -272.5zM-395 -825q0 -64 -61 -64t-61 64q0 50 61 109q61 -59 61 -109zM-189 -499q0 115 -75 195t-190 80t-192 -80
t-77 -195q0 -52 28.5 -89t79.5 -37q41 0 74.5 26.5t33.5 66.5v21h103v-21q0 -40 35 -67q32 -26 73 -26q51 0 80 39q27 35 27 87z" />
    <glyph glyph-name="glyph200" horiz-adv-x="281" 
d="M198 -788l-105 -40q-40 109 -62 161q-38 88 -77 154q-121 -138 -283 -138q-100 0 -174 58q-80 62 -80 160q0 100 73 163q70 61 172 61q159 0 282 -116q81 172 80 331h112q1 -224 -114 -421q48 -66 96 -182q69 -168 80 -191zM-114 -424q-104 107 -224 107q-58 0 -95 -29
q-42 -31 -42 -87q0 -54 48 -84q41 -26 98 -26q119 0 215 119z" />
    <glyph glyph-name="glyph201" horiz-adv-x="324" 
d="M236 -424q0 -126 -56 -208q-65 -94 -186 -94q-43 0 -93 24q-53 25 -73 60q-20 -36 -67 -60t-90 -24q-97 0 -159 69q-60 66 -60 164q0 195 198 253l33 -104q-123 -40 -123 -145q0 -49 29 -87q32 -42 79 -42q105 0 105 104v34h112v-34q0 -48 32.5 -76t79.5 -28
q131 0 131 194q0 122 -72.5 209.5t-139.5 116.5l61 88q259 -141 259 -414z" />
    <glyph glyph-name="glyph202" horiz-adv-x="324" 
d="M236 -424q0 -126 -56 -208q-65 -94 -186 -94q-43 0 -93 24q-53 25 -73 60q-20 -36 -67 -60t-90 -24q-97 0 -159 69q-60 66 -60 164q0 195 198 253l33 -104q-123 -40 -123 -145q0 -49 29 -87q32 -42 79 -42q105 0 105 104v34h112v-34q0 -48 32.5 -76t79.5 -28
q131 0 131 194q0 122 -72.5 209.5t-139.5 116.5l61 88q259 -141 259 -414zM-111 -825q0 -64 -61 -64t-61 64q0 50 61 109q61 -59 61 -109z" />
    <glyph glyph-name="glyph203" horiz-adv-x="358" 
d="M269 -424q0 -132 -57 -211q-65 -91 -194 -91q-106 0 -164 66q-56 -66 -162 -66q-88 0 -148.5 57.5t-60.5 144.5q0 85 56 129q23 19 104 51q57 21 57 52q0 61 -59 61q-55 0 -54 -60h-99q0 68 43.5 113.5t110.5 45.5q72 0 114.5 -45.5t42.5 -118.5q0 -70 -57 -103l-104 -42
q-56 -25 -56 -75q0 -41 32 -67.5t74 -26.5q44 0 79 27q39 30 39 72v18h98v-18q0 -41 39 -71q36 -28 79 -28q139 0 139 186q0 113 -60 196t-129 130l75 88q222 -161 222 -414z" />
    <glyph glyph-name="glyph204" horiz-adv-x="358" 
d="M269 -424q0 -132 -57 -211q-65 -91 -194 -91q-106 0 -164 66q-56 -66 -162 -66q-88 0 -148.5 57.5t-60.5 144.5q0 85 56 129q23 19 104 51q57 21 57 52q0 61 -59 61q-55 0 -54 -60h-99q0 68 43.5 113.5t110.5 45.5q72 0 114.5 -45.5t42.5 -118.5q0 -70 -57 -103l-104 -42
q-56 -25 -56 -75q0 -41 32 -67.5t74 -26.5q44 0 79 27q39 30 39 72v18h98v-18q0 -41 39 -71q36 -28 79 -28q139 0 139 186q0 113 -60 196t-129 130l75 88q222 -161 222 -414zM-90 -825q0 -64 -61 -64t-61 64q0 50 61 109q61 -59 61 -109z" />
    <glyph glyph-name="glyph205" horiz-adv-x="657" 
d="M840 -245q1 -97 -29.5 -186.5t-88 -157.5t-140 -109t-184.5 -41q-100 0 -174 26t-123 71t-73 107t-24 134q0 49 11.5 92.5t32 80t47.5 66.5t58 53q7 27 18.5 52t21.5 52t17.5 58.5t7.5 72.5q0 15 -2.5 32.5t-6 35t-7 32t-5.5 22.5l108 63q7 -20 13 -41q5 -18 9.5 -40.5
t4.5 -44.5q0 -47 -5.5 -80.5t-13.5 -59.5t-16.5 -46.5t-14.5 -40.5q22 7 42.5 10t38.5 3q55 0 99.5 -16t76 -45t48.5 -68.5t17 -85.5q0 -45 -16 -84.5t-44.5 -69t-68 -46t-86.5 -16.5q-45 0 -86 12t-73.5 35.5t-53.5 59t-27 82.5q-5 -11 -10.5 -28.5t-10 -36t-7.5 -36
t-3 -27.5q0 -50 17.5 -91t52.5 -70.5t87.5 -46t122.5 -16.5q78 0 140 27t105 76.5t66 119.5t23 155h108zM488 -246q0 22 -9 41t-25 32.5t-37.5 21t-46.5 7.5q-28 0 -49 -5.5t-35 -14t-22.5 -17t-12.5 -14.5q7 -74 38 -111.5t99 -37.5q44 0 72 28t28 70z" />
    <glyph glyph-name="glyph206" horiz-adv-x="479" 
d="M437 200l-96 -61q-34 66 -105 66q-97 0 -97 -138q0 -52 58 -148q92 -150 109 -185q59 -122 59 -238q0 -179 -84 -267q-91 -104 -260 -104q-174 0 -265.5 75t-91.5 187q0 91 72.5 139.5t122.5 82t50 73.5q0 37 -21.5 65.5t-58.5 28.5q-86 0 -86 -76q0 -18 8 -39l-106 -35
q-11 37 -11 72q0 83 55.5 136t138.5 53q84 0 137 -61.5t53 -145.5q0 -77 -123 -149.5t-123 -130.5q0 -160 254 -160q126 0 180 69q49 62 49 195q0 117 -114 295.5t-114 274.5q0 102 50 168q56 73 154 73q128 0 206 -115z" />
    <glyph glyph-name="glyph207" horiz-adv-x="310" 
d="M222 112q0 -742 -655 -742q-167 0 -337 65l59 114q148 -46 286 -46q284 0 411 162q112 143 112 434q0 98 -28 395h122q30 -232 30 -382z" />
    <glyph glyph-name="glyph208" horiz-adv-x="0" 
d="M-88 -435q0 -111 -59 -196q-66 -95 -172 -95q-92 0 -142 81q-47 -81 -139 -81q-106 0 -173 95q-60 85 -60 196q0 103 34 192q45 120 131 120q55 0 92 -44q34 -42 34 -97q0 -24 -6 -45h175q-7 21 -7 45q0 55 36 98t90 43q86 0 132 -120q34 -89 34 -192zM-184 -433
q0 51 -16 120q-20 94 -54 94q-28 0 -28 -45v-142h-386q-36 0 -68 22q-1 -9 -1 -49q0 -69 32 -128q38 -70 101 -70q40 0 68 29t28 69v17h96v-17q0 -40 28 -69t67 -29q63 0 101 71q32 58 32 127zM-623 -264q0 59 -45 59q-21 0 -39 -27.5t-18 -56.5q19 -35 57 -35q45 0 45 60z
" />
    <glyph glyph-name="glyph209" horiz-adv-x="0" 
d="M-88 -483q0 -195 -163 -243l-32 104q89 29 89 135q0 51 -25 92q-29 47 -77 47q-105 0 -105 -103v-35h-112v35q0 103 -105 103q-48 0 -77 -47q-25 -41 -25 -92q0 -106 89 -135l-32 -104q-163 47 -163 243q0 99 55 168q59 75 156 75q41 0 89.5 -28.5t69.5 -64.5
q20 36 68 64.5t89 28.5q97 0 156 -75q55 -69 55 -168z" />
    <glyph glyph-name="glyph210" horiz-adv-x="243" 
d="M155 -218q0 -199 -176 -278q30 -35 30 -83q0 -68 -52 -109q-48 -38 -117 -38t-117 38q-51 41 -51 109q0 48 28 83q-199 77 -199 242q0 53 37.5 91t91.5 38t92 -38t38 -91q0 -88 -78 -120q92 -51 158 -51q90 0 150 70q57 67 57 158q0 183 -140 396l86 53
q162 -274 162 -470zM-326 -254q0 43 -44 43q-47 0 -47 -43q0 -50 34 -73q57 14 57 73zM-88 -579q0 56 -72 56q-71 0 -71 -56q0 -50 71 -50q72 0 72 50z" />
    <glyph glyph-name="glyph211" horiz-adv-x="346" 
d="M183 -459q0 -116 -69 -190q-71 -77 -187 -77q-42 0 -88 24q-49 25 -68 60q-48 -84 -158 -84q-97 0 -159 69q-60 66 -60 164q0 195 198 253l33 -104q-123 -40 -123 -145q0 -49 29 -87q32 -42 79 -42q106 0 106 104v34h111v-34q0 -104 104 -104q67 0 107 51q37 47 37 116
q0 83 -51 147t-132 90h-121v108h299q34 0 58 24.5t24 58.5t-24 58.5t-58 24.5v108q79 0 134.5 -56t55.5 -135q0 -76 -52.5 -131.5t-127.5 -59.5q103 -105 103 -245z" />
    <glyph glyph-name="glyph212" horiz-adv-x="535" 
d="M447 -458q0 -60 -22.5 -109.5t-63 -84.5t-95.5 -54.5t-120 -19.5q-50 0 -90.5 11.5t-70 34t-45.5 54t-16 72.5q0 30 14 53t37 43.5t52 41t59.5 44.5t59 54t50.5 71q-24 9 -46.5 13t-39.5 4q-41 0 -59.5 -21t-18.5 -64h-95q0 182 172 182q31 0 62 -4.5t60 -14.5
q5 24 8 50.5t3 56.5q0 85 -25 195h91q11 -56 16 -104.5t5 -90.5t-5 -78t-13 -68q59 -40 97.5 -106t38.5 -161zM17 -558q0 -16 10.5 -29.5t28.5 -23.5t41 -15.5t47 -5.5q48 0 87.5 12.5t68 36t44.5 57t16 75.5q0 54 -25.5 94t-61.5 67q-23 -41 -50.5 -71t-56 -53t-55.5 -41
t-48 -34.5t-33.5 -32.5t-12.5 -36z" />
    <glyph glyph-name="glyph213" horiz-adv-x="158" 
d="M123 -648l-77 -93q-74 90 -107 159q-64 -144 -221 -144q-44 0 -93 24q-53 25 -73 60q-20 -36 -67.5 -60t-89.5 -24q-97 0 -159 69q-60 66 -60 164q0 195 198 253l32 -104q-122 -40 -122 -145q0 -49 29 -87q31 -42 79 -42q105 0 105 104v34h112v-34q0 -48 32 -76t80 -28
q67 0 103 52q32 45 32 115q0 83 -50.5 147t-131.5 90l44 104q160 -60 239 -251q62 -189 166 -287z" />
    <glyph glyph-name="glyph214" horiz-adv-x="356" 
d="M170 -10q49 -120 73.5 -217t24.5 -183q0 -77 -17 -136t-47.5 -99t-72.5 -60.5t-92 -20.5q-48 0 -81.5 16t-58.5 44t-43.5 66t-36.5 81q-14 34 -25.5 72t-26.5 70t-36 53t-54 21q-56 0 -77 -43t-21 -130q0 -106 70 -197l-86 -70q-92 131 -92 270q0 57 12 108t36.5 89.5
t61 60.5t84.5 22q43 0 80 -18.5t66 -48.5t49 -69t30 -80q10 -32 22.5 -68.5t29.5 -67t40.5 -51t56.5 -20.5q58 0 90.5 48.5t32.5 143.5q0 33 -7 81.5t-19.5 100t-29 101.5t-35.5 87z" />
    <glyph glyph-name="glyph215" horiz-adv-x="0" 
d="M-88 -476q0 -103 -52 -173q-58 -77 -159 -77q-43 0 -92 31t-67 71q-39 -102 -156 -102q-99 0 -158 78q-54 70 -54 172q0 100 55 166q58 70 156 70q41 0 91.5 -32t67.5 -70q18 38 67 70t90 32q98 0 156 -70q55 -66 55 -166zM-194 -479q0 51 -25 88q-28 43 -77 43t-77 -43
q-25 -37 -25 -88t25 -92q29 -47 77 -47t77 47q25 41 25 92zM-516 -479q0 51 -25 88q-28 43 -77 43t-77 -43q-25 -37 -25 -88t25 -92q29 -47 77 -47t77 47q25 41 25 92z" />
    <glyph glyph-name="glyph216" horiz-adv-x="0" 
d="M-88 -435q0 -133 -75 -216q-68 -75 -157 -75q-96 0 -141 81q-38 -81 -139 -81q-89 0 -157 75q-76 83 -76 216q0 121 41 211q47 101 124 101q53 0 89.5 -41.5t36.5 -99.5q0 -61 -37.5 -101.5t-88.5 -40.5q-36 0 -67 22q-2 -17 -2 -49q0 -95 48 -152q39 -46 85 -46
q34 0 63 25q33 28 33 73v17h96v-17q0 -45 33 -73q28 -25 62 -25q46 0 85 46q48 57 48 152q0 32 -2 49q-31 -22 -68 -22q-50 0 -88 40.5t-38 101.5q0 58 37 99.5t89 41.5q78 0 124 -101q42 -90 42 -211zM-197 -286q-8 81 -57 81q-44 0 -44 -59q0 -60 44 -60q46 0 57 38z
M-623 -264q0 59 -45 59q-18 0 -36.5 -27t-21.5 -58q15 -34 58 -34q45 0 45 60z" />
    <glyph glyph-name="glyph217" horiz-adv-x="654" 
d="M565 -690h-109q58 -59 58 -141q0 -107 -82 -169q-74 -56 -184 -56q-109 0 -184 56q-81 62 -81 169q0 81 58 141h-109v86h291q15 41 15 108q0 75 -41 154l79 42q49 -101 49 -195q0 -70 -10 -109h250v-86zM428 -831q0 70 -57 108q-49 33 -123 33q-73 0 -122 -33
q-57 -38 -57 -108q0 -69 57 -107q49 -32 122 -32q74 0 123 32q57 38 57 107z" />
    <glyph glyph-name="glyph218" horiz-adv-x="652" 
d="M562 -814q0 -103 -52 -169q-56 -73 -158 -73q-84 0 -139 63q-54 -63 -136 -63q-59 0 -102 36t-43 94q0 55 42 86q38 28 95 28q69 0 123 -51q4 14 4 39q0 57 -20 108q-27 66 -76 66q-48 0 -48 -38q0 -17 10 -27l-49 -43q-28 29 -28 73q0 45 34.5 75t80.5 30q90 0 138 -88
q39 -71 39 -169q0 -47 -19 -88q38 -44 94 -44q124 0 124 165q0 81 -22 158.5t-65 160.5l69 43q104 -168 104 -372zM156 -935q-40 44 -88 44q-52 0 -52 -39q0 -42 65 -42q43 0 75 37z" />
    <glyph glyph-name="glyph219" horiz-adv-x="576" 
d="M488 -928v-117h-96v127q0 88 -47 159q-53 80 -136 80q-82 0 -135 -81q-46 -72 -46 -158v-127h-97v122q0 132 72 231q79 109 206 109q130 0 209 -110q70 -99 70 -235z" />
    <glyph glyph-name="glyph220" horiz-adv-x="680" 
d="M623 -411q0 -57 -30 -103t-84 -71q29 -43 47 -97t18 -122q0 -121 -53 -184t-154 -63q-88 0 -125 67q-8 -14 -23.5 -26t-34.5 -21t-39.5 -14.5t-37.5 -5.5q-36 0 -68.5 14.5t-57 39t-39 57t-14.5 68.5q0 64 34.5 105.5t99.5 60.5l26 -83q-69 -23 -69 -77q0 -37 24.5 -65
t61.5 -28q38 0 65.5 22.5t27.5 59.5v21h89q0 -103 83 -103q111 0 111 155q0 36 -9 73.5t-28.5 73.5t-49.5 68t-72 58l41 92q22 -15 46.5 -35t48.5 -46q35 11 57.5 43.5t22.5 68.5q0 12 -3.5 25.5t-9.5 26t-13.5 23t-16.5 15.5l49 65q18 -12 32.5 -30.5t25 -39.5t16 -44
t5.5 -44zM291 -1130q0 -51 -49 -51t-49 51q0 41 49 87q49 -46 49 -87z" />
    <glyph glyph-name="glyph221" horiz-adv-x="602" 
d="M285 -798q0 -38 -37 -38q-38 0 -38 38q0 37 38 37q37 0 37 -37zM514 -903q0 -69 -46 -111t-115 -42q-85 0 -130 51q-44 -51 -128 -51q-68 0 -115.5 44.5t-47.5 112.5q0 67 44 104q18 16 82 45q43 21 43 45q0 47 -46 47q-42 0 -42 -37h-76q0 49 35.5 81.5t84.5 32.5
q71 0 103 -55q71 55 179 55q146 0 146 -131h-76q0 54 -67 54q-117 0 -164 -71q-10 -55 -92 -88q-77 -31 -77 -76q0 -82 83 -82q93 0 93 100h77q0 -100 91 -100q84 0 84 72q0 59 -69 80l22 72q124 -35 124 -152z" />
    <glyph glyph-name="glyph222" horiz-adv-x="662" 
d="M554 -799h-50q21 -37 21 -91q0 -73 -46.5 -119t-119.5 -46q-85 0 -131 52q-45 -52 -130 -52q-70 0 -118.5 46t-48.5 115q0 68 45 104q19 15 83 40q45 18 45 42q0 49 -46 49q-44 0 -44 -48h-79q0 54 34.5 90.5t88.5 36.5q58 0 92 -36.5t34 -94.5q0 -71 -87 -101t-87 -75
q0 -33 27 -55q24 -20 58 -20q35 0 64.5 22.5t29.5 56.5v14h79v-14q0 -33 28.5 -56t62.5 -23q87 0 87 79q0 26 -16 53q-18 31 -43 31h-78v79h78q61 49 61 146q0 126 -40 174l69 42q53 -69 53 -226q0 -97 -51 -136h75v-79z" />
    <glyph glyph-name="glyph223" horiz-adv-x="600" 
d="M512 -820q0 -106 -56 -169q-51 -57 -122 -57q-74 0 -113 57q-38 -57 -111 -57q-72 0 -123 56q-57 64 -57 170q0 96 34 168q37 81 99 81q42 0 71.5 -33t29.5 -80q0 -46 -29.5 -79.5t-71.5 -33.5q-30 0 -55 18q-1 -7 -1 -40q0 -76 35 -115q28 -31 65 -31q27 0 50 19
q26 23 26 59v13h77v-13q0 -36 26 -59q23 -19 50 -19q37 0 64 31q35 39 35 115q0 89 -43 133q-29 30 -55 30v77q71 0 123 -74.5t52 -166.5zM270 -1125q0 -51 -49 -51t-49 51q0 40 49 87q49 -47 49 -87zM106 -684q0 49 -43 49q-22 0 -37 -25q-13 -21 -13 -45q10 -32 50 -32
q15 0 29 17t14 36z" />
    <glyph glyph-name="glyph224" horiz-adv-x="600" 
d="M512 -891q0 -70 -45.5 -117t-115.5 -47q-89 0 -130 58q-38 -58 -128 -58q-69 0 -116 44.5t-47 112.5q0 67 42 105q17 15 78 44q42 20 42 44q0 48 -46 48q-42 0 -42 -36h-77q0 49 35.5 81t85.5 32q98 0 120 -91q23 -27 104 -27q124 0 124 94q0 15 -4 32l77 23q4 -24 4 -46
q0 -87 -62 -133q-55 -41 -146 -41q-58 0 -104 17q-16 -39 -90 -69q-64 -26 -64 -70q0 -32 25 -52.5t58 -20.5q93 0 93 77v14h77v-14q0 -77 91 -77q33 0 58.5 20t25.5 53q0 51 -42 64l63 46q35 -28 45 -46q11 -21 11 -64z" />
    <glyph glyph-name="glyph225" horiz-adv-x="938" 
d="M848 -842q0 -78 -47 -138q-50 -65 -126 -65q-36 0 -77 24.5t-56 56.5q-15 -35 -56.5 -58t-81.5 -23q-88 0 -136 81q-57 -81 -143 -81t-142 77q-51 71 -51 160t51 160q56 77 142 77t141 -77q49 -70 49 -159q0 -7 -1.5 -21t-1.5 -20q0 -111 95 -111q44 0 69 44q21 36 21 84
q0 152 -97 176l32 84q155 -55 155 -250q0 -15 -1 -31q0 -107 93 -107q39 0 63 45q20 37 20 79q0 156 -99 180l33 84q152 -54 152 -271zM591 -1124q0 -51 -49 -51t-49 51q0 40 49 87q49 -47 49 -87zM229 -807q0 53 -25 97q-29 53 -79 53t-81 -53q-27 -45 -27 -98
q0 -54 27 -98q31 -53 81 -53t79 54q25 44 25 98z" />
    <glyph glyph-name="glyph226" horiz-adv-x="810" 
d="M722 -740q0 -96 -79 -152l-45 61q48 35 48 89q0 32 -22.5 56.5t-54.5 24.5q-84 0 -84 -63q0 -9 3.5 -27.5t3.5 -27.5q0 -69 -20 -110q52 -52 87 -132l-66 -32q-17 33 -58 94q-59 -97 -161 -97q-61 0 -103 32q-46 35 -46 93q0 62 49 99q44 34 107 34q62 0 123 -35
q7 22 7 52q0 120 -88 120q-84 0 -83 -79h-77q1 79 -72 79q-83 0 -83 -79q0 -58 58 -86l-36 -65q-96 50 -96 153q0 64 46.5 110.5t110.5 46.5q77 0 110 -53q37 53 122 53q84 0 125 -64q45 64 121 64q66 0 109.5 -46t43.5 -113zM376 -910q-42 32 -96 32q-74 0 -74 -49
q0 -48 68 -48q74 0 102 65z" />
    <glyph glyph-name="glyph227" horiz-adv-x="610" 
d="M531 -589q0 -143 -66 -202q55 -36 55 -105q0 -73 -47 -116t-120 -43q-80 0 -124 51q-46 -53 -119 -53q-76 0 -127 52.5t-51 128.5q0 82 51.5 136.5t133.5 54.5v-83q-102 0 -102 -95q0 -106 95 -106q80 0 80 67v14h77v-14q0 -72 86 -72q36 0 62 19q30 21 30 56
q0 72 -103 72v75q107 0 107 154q0 119 -52 194l69 43q65 -71 65 -228z" />
    <glyph glyph-name="glyph228" horiz-adv-x="496" 
d="M407 -818q0 -98 -69.5 -168t-167.5 -70q-99 0 -168.5 70t-69.5 168q0 99 69.5 168.5t168.5 69.5q98 0 167.5 -69.5t69.5 -168.5zM321 -818q0 62 -44.5 106.5t-106.5 44.5q-63 0 -107.5 -44.5t-44.5 -106.5q0 -63 44.5 -107t107.5 -44q62 0 106.5 44t44.5 107zM221 -810
q0 -51 -51 -51t-51 51t51 51t51 -51z" />
    <glyph glyph-name="glyph229" horiz-adv-x="610" 
d="M522 -906q0 -66 -49.5 -108t-116.5 -42q-80 0 -125 51q-45 -51 -124 -51q-74 0 -124 52t-50 127q0 122 91.5 213t214.5 91q87 0 154 -54q74 -59 74 -149q55 -42 55 -130zM446 -897q0 38 -21 61q-28 -24 -51 -24q-67 0 -67 64q0 24 18 44t41 20q17 0 28 -2q-8 39 -61 62
q-43 18 -90 18q-91 0 -160 -63.5t-69 -153.5q0 -43 22 -72q25 -32 66 -32q34 0 62.5 19t28.5 51v14h77v-14q0 -32 30 -52q27 -18 61 -18q35 0 60 21.5t25 56.5z" />
    <glyph glyph-name="glyph230" horiz-adv-x="610" 
d="M522 -898q0 -66 -49.5 -108t-116.5 -42q-80 0 -125 51q-45 -51 -124 -51q-74 0 -124 52t-50 127q0 122 91.5 213t214.5 91q89 0 154 -51q74 -57 74 -152q55 -42 55 -130zM280 -1127q0 -51 -49 -51t-49 51q0 40 49 87q49 -47 49 -87zM446 -889q0 38 -21 61
q-34 -24 -51 -24q-67 0 -67 64q0 24 18 44t41 20q17 0 28 -2q-8 39 -61 62q-43 18 -90 18q-91 0 -160 -63.5t-69 -153.5q0 -43 22 -72q25 -32 66 -32q34 0 62.5 19t28.5 51v14h77v-14q0 -32 30 -52q27 -18 61 -18q35 0 60 21.5t25 56.5z" />
    <glyph glyph-name="glyph231" horiz-adv-x="620" 
d="M532 -829q0 -84 -40 -150q-47 -77 -125 -77q-44 0 -72.5 35t-28.5 80q0 46 27.5 80t73.5 34q67 0 84 -49v40q0 61 -24 116q-30 70 -84 70q-36 0 -62 -26t-26 -62h-82q0 36 -24 60t-61 24q-75 0 -75 -59q0 -69 48 -69h32v-77h-32q-48 0 -48 -60q0 -56 57 -56q54 0 54 57
l69 -55q-21 -83 -122 -83q-59 0 -99 35t-40 93q0 80 48 108q-48 29 -48 106q0 63 48 103q44 38 108 38q86 0 126 -64q42 64 129 64q91 0 144 -86q45 -73 45 -170zM432 -940q-17 47 -65 47q-34 0 -34 -48q0 -49 35 -49q42 0 64 50z" />
    <glyph glyph-name="glyph232" horiz-adv-x="792" 
d="M704 -878q0 -64 -45 -108.5t-108 -44.5h-622v86h485q-15 32 -15 67q0 63 44.5 107.5t107.5 44.5t108 -44.5t45 -107.5zM618 -878q0 27 -19.5 46.5t-47.5 19.5q-27 0 -46.5 -19.5t-19.5 -46.5q0 -28 19.5 -47.5t46.5 -19.5q28 0 47.5 19.5t19.5 47.5z" />
    <glyph glyph-name="glyph233" horiz-adv-x="610" 
d="M522 -870q0 -73 -46.5 -124.5t-119.5 -51.5q-88 0 -128 64q-41 -64 -129 -64q-72 0 -119 51.5t-47 124.5q0 129 83.5 218t212.5 89t211 -89t82 -218zM276 -1125q0 -51 -48 -51q-49 0 -49 51q0 40 49 87q48 -47 48 -87zM441 -864q0 92 -60 156t-152 64t-153.5 -64
t-61.5 -156q0 -101 86 -101q33 0 59.5 21.5t26.5 53.5v16h83v-16q0 -32 27 -53.5t60 -21.5q85 0 85 101zM276 -764q0 -43 -43 -43t-43 43t43 43t43 -43z" />
    <glyph glyph-name="glyph234" horiz-adv-x="610" 
d="M522 -880q0 -73 -46.5 -124.5t-119.5 -51.5q-88 0 -128 64q-41 -64 -129 -64q-72 0 -119 51.5t-47 124.5q0 129 83.5 218t212.5 89t211 -89t82 -218zM441 -874q0 92 -60 156t-152 64t-153.5 -64t-61.5 -156q0 -101 86 -101q33 0 59.5 21.5t26.5 53.5v16h83v-16
q0 -32 27 -53.5t60 -21.5q85 0 85 101z" />
    <glyph glyph-name="glyph235" horiz-adv-x="610" 
d="M522 -870q0 -73 -46.5 -124.5t-119.5 -51.5q-88 0 -128 64q-41 -64 -129 -64q-72 0 -119 51.5t-47 124.5q0 129 83.5 218t212.5 89t211 -89t82 -218zM276 -1125q0 -51 -48 -51q-49 0 -49 51q0 40 49 87q48 -47 48 -87zM441 -864q0 92 -60 156t-152 64t-153.5 -64
t-61.5 -156q0 -101 86 -101q33 0 59.5 21.5t26.5 53.5v16h83v-16q0 -32 27 -53.5t60 -21.5q85 0 85 101z" />
    <glyph glyph-name="glyph236" horiz-adv-x="664" 
d="M556 -1026l-84 -32q-32 86 -111 252q-97 -111 -227 -111q-80 0 -139 46q-64 51 -64 128q0 81 59 131q55 48 137 48q127 0 226 -92q65 138 65 473h89q0 -387 -92 -545q38 -53 77 -146q55 -134 64 -152zM306 -736q-83 86 -179 86q-110 0 -110 -93q0 -42 39 -67
q33 -21 78 -21q95 0 172 95z" />
    <glyph glyph-name="glyph237" horiz-adv-x="648" 
d="M559 -814q0 -101 -45 -166q-51 -76 -148 -76q-35 0 -76 19.5t-57 47.5q-38 -67 -126 -67q-77 0 -126 54t-49 133q0 156 158 202l26 -84q-98 -31 -98 -115q0 -40 24 -70q25 -33 63 -33q84 0 84 82v28h89v-28q0 -82 90 -82q105 0 105 155q0 81 -38.5 144.5t-86.5 98.5
l61 59q150 -124 150 -302z" />
    <glyph glyph-name="glyph238" horiz-adv-x="648" 
d="M559 -804q0 -101 -45 -166q-51 -76 -148 -76q-35 0 -76 19.5t-57 47.5q-38 -67 -126 -67q-77 0 -126 54t-49 133q0 156 158 202l26 -84q-98 -31 -98 -115q0 -40 24 -70q25 -33 63 -33q84 0 84 82v28h89v-28q0 -82 90 -82q105 0 105 155q0 81 -38.5 139.5t-86.5 93.5
l61 59q150 -124 150 -292zM282 -1125q0 -51 -49 -51t-49 51q0 40 49 87q49 -47 49 -87z" />
    <glyph glyph-name="glyph239" horiz-adv-x="650" 
d="M562 -814q0 -242 -201 -242q-85 0 -131 53q-45 -53 -130 -53q-70 0 -118.5 46t-48.5 115t45 104q18 15 83 40q45 18 45 42q0 49 -47 49q-44 0 -43 -48h-79q0 54 34.5 90.5t88.5 36.5q58 0 91.5 -36.5t33.5 -94.5q0 -71 -86.5 -101t-86.5 -75q0 -33 25.5 -54t59.5 -21
q35 0 64.5 22.5t29.5 56.5v14h79v-14q0 -33 30 -56t64 -23q111 0 111 149q0 81 -32.5 143t-71.5 100l69 42q122 -127 122 -285z" />
    <glyph glyph-name="glyph240" horiz-adv-x="650" 
d="M562 -804q0 -242 -201 -242q-85 0 -131 53q-45 -53 -130 -53q-70 0 -118.5 46t-48.5 115t45 104q18 15 83 40q45 18 45 42q0 49 -47 49q-44 0 -43 -48h-79q0 54 34.5 90.5t88.5 36.5q58 0 91.5 -36.5t33.5 -94.5q0 -71 -86.5 -101t-86.5 -75q0 -33 25.5 -54t59.5 -21
q35 0 64.5 22.5t29.5 56.5v14h79v-14q0 -33 30 -56t64 -23q111 0 111 149q0 81 -32.5 138t-71.5 95l69 42q122 -127 122 -275zM275 -1125q0 -51 -49 -51t-49 51q0 40 49 87q49 -47 49 -87z" />
    <glyph glyph-name="glyph241" horiz-adv-x="710" 
d="M807 -459q1 -79 -23.5 -151t-71 -127t-113 -87.5t-148.5 -32.5q-81 0 -140.5 20.5t-99 57t-59 86.5t-19.5 108q0 81 34.5 139.5t85.5 96.5q6 22 15 42t17 41.5t14 47t6 58.5q0 12 -2 26.5t-4.5 28.5t-5.5 25.5t-5 18.5l87 51q6 -16 11 -33q4 -15 7.5 -33t3.5 -36
q0 -38 -4.5 -65t-11 -47.5t-13.5 -37.5t-12 -33q38 11 66 11q45 0 81 -13t61.5 -36.5t39 -55.5t13.5 -69t-13 -68.5t-36 -55t-55 -37t-70 -13.5q-37 0 -70 9.5t-59 28.5t-43 47.5t-22 67.5q-4 -9 -8.5 -23.5t-8 -29.5t-5.5 -29t-2 -23q0 -39 14 -72t42.5 -57t70.5 -37
t99 -13q63 0 112.5 22t84 61.5t53 95.5t18.5 125h88zM523 -460q0 37 -27 60t-68 23q-23 0 -39.5 -4.5t-28 -11t-18.5 -14t-10 -12.5q5 -60 30.5 -90t79.5 -30q35 0 58 22.5t23 56.5z" />
    <glyph glyph-name="glyph242" horiz-adv-x="606" 
d="M523 -324l-77 -49q-27 53 -84 53q-78 0 -78 -110q0 -41 90.5 -188.5t90.5 -268.5q0 -135 -69 -214q-73 -83 -246 -83q-109 0 -180.5 52t-71.5 167q0 79 101.5 132t101.5 94q0 76 -64 76q-69 0 -69 -61q0 -15 6 -31l-85 -28q-8 29 -8 57q0 66 44.5 109t110.5 43
q67 0 110 -51q42 -47 42 -115q0 -84 -101.5 -131t-101.5 -93q0 -128 189 -128q202 10 203 211q0 94 -91 237t-91 219q0 82 40 135q45 58 124 58q102 0 164 -92z" />
    <glyph glyph-name="glyph243" horiz-adv-x="275" 
d="M160 -462q0 -594 -524 -594q-134 0 -270 52l48 91q118 -37 228 -37q228 0 329 130q90 115 90 347q0 79 -23 316h98q24 -185 24 -305z" />
    <glyph glyph-name="glyph244" horiz-adv-x="616" 
d="M528 -823q0 -88 -47 -156q-53 -77 -138 -77q-73 0 -113 65q-38 -65 -112 -65q-85 0 -138 76q-48 68 -48 157q0 82 27 154q37 96 105 96q44 0 72.5 -34.5t28.5 -78.5q0 -19 -5 -36h140q-5 17 -5 36q0 44 28.5 78.5t72.5 34.5q68 0 105 -96q27 -72 27 -154zM451 -822
q0 41 -12 96q-17 76 -43 76q-24 0 -24 -36v-113h-308q-29 0 -54 17q-1 -7 -1 -40q0 -55 25 -102q31 -55 81 -55q32 0 54.5 23t22.5 54v14h77v-14q0 -31 22.5 -54t53.5 -23q50 0 81 56q25 46 25 101zM100 -686q0 47 -36 47q-17 0 -31.5 -22t-14.5 -45q15 -28 46 -28
q36 0 36 48z" />
    <glyph glyph-name="glyph245" horiz-adv-x="610" 
d="M522 -861q0 -157 -130 -195l-26 84q71 23 71 108q0 40 -20 73q-23 38 -61 38q-85 0 -85 -83v-28h-89v28q0 83 -84 83q-39 0 -62 -38q-19 -33 -19 -73q0 -85 71 -108l-26 -84q-130 38 -130 195q0 79 43 134q48 60 125 60q33 0 72 -22.5t56 -51.5q16 29 54.5 51.5
t71.5 22.5q77 0 124 -60q44 -55 44 -134z" />
    <glyph glyph-name="glyph246" horiz-adv-x="544" 
d="M456 -650q0 -158 -140 -221q24 -29 24 -67q0 -54 -42 -87q-38 -31 -94 -31q-55 0 -93 31q-41 33 -41 87q0 38 22 66q-159 62 -159 194q0 43 30.5 73t73.5 30q42 0 72.5 -30t30.5 -73q0 -71 -62 -96q73 -41 126 -41q72 0 119 55t47 128q0 146 -112 317l69 42
q129 -219 129 -377zM71 -678q0 34 -34 34q-39 0 -39 -34q0 -40 28 -59q45 11 45 59zM262 -938q0 45 -58 45q-56 0 -56 -45q0 -40 56 -40q58 0 58 40z" />
    <glyph glyph-name="glyph247" horiz-adv-x="650" 
d="M562 -842q0 -93 -56 -153.5t-148 -60.5q-88 0 -126 67q-38 -67 -126 -67q-77 0 -125.5 54t-48.5 133q0 156 158 202l26 -84q-98 -31 -98 -115q0 -40 23 -70q25 -33 63 -33q85 0 85 82v28h89v-28q0 -82 83 -82q53 0 84 39t31 94q0 143 -146 190h-97v86h239q27 0 46.5 19.5
t19.5 46.5q0 28 -19.5 47.5t-46.5 19.5v86q63 0 107.5 -44.5t44.5 -108.5q0 -60 -42 -104.5t-102 -47.5q82 -84 82 -196z" />
    <glyph glyph-name="glyph248" horiz-adv-x="475" 
d="M340 -841q0 -100 -72 -159q-67 -56 -169 -56q-73 0 -121 32q-57 36 -57 106q0 60 96 120q103 64 117 130q-30 9 -64 9q-63 0 -62 -68h-76q0 146 138 146q32 0 64 -9q-11 116 -55 191l64 38q79 -151 63 -258q134 -80 134 -222zM271 -836q0 83 -73 137q-20 -75 -115 -137
q-87 -57 -87 -85q0 -29 39 -46q30 -14 63 -14q72 0 119 36q54 40 54 109z" />
    <glyph glyph-name="glyph249" horiz-adv-x="700" 
d="M664 -1013l-50 -74q-54 67 -79 126q-43 -95 -169 -95q-34 0 -75 19.5t-57 47.5q-38 -67 -126 -67q-77 0 -126 54t-49 133q0 156 158 202l26 -84q-98 -31 -98 -115q0 -40 24 -70q25 -33 63 -33q84 0 84 82v28h89v-28q0 -82 90 -82q108 0 108 133q0 143 -146 190l35 83
q187 -53 201 -271q30 -114 97 -179z" />
    <glyph glyph-name="glyph250" horiz-adv-x="730" 
d="M641 -803q0 -101 -47 -171q-54 -82 -150 -82q-103 0 -160 88q-37 81 -75 163q-40 88 -102 88q-87 0 -87 -139q0 -85 62 -157l-68 -56q-81 104 -81 216q0 85 42 149q49 74 130 74q99 0 153 -87q36 -82 73 -163q42 -88 111 -88q56 0 87 52q26 43 26 102q0 81 -36 201.5
t-81 189.5l69 43q134 -255 134 -423z" />
    <glyph glyph-name="glyph251" horiz-adv-x="610" 
d="M522 -856q0 -83 -42 -138q-46 -62 -126 -62q-35 0 -74.5 25t-53.5 57q-31 -82 -125 -82q-79 0 -126 62q-43 57 -43 138q0 80 43 133q47 56 125 56q33 0 73.5 -25.5t54.5 -55.5q14 30 53 55.5t73 25.5q77 0 124 -56q44 -53 44 -133zM437 -859q0 106 -81 106
q-82 0 -82 -106q0 -40 20 -72q23 -38 62 -38q38 0 61 38q20 32 20 72zM179 -859q0 106 -81 106t-81 -106q0 -40 19 -72q24 -38 62 -38t62 38q19 32 19 72z" />
    <glyph glyph-name="glyph252" horiz-adv-x="616" 
d="M528 -823q0 -106 -60 -173q-55 -60 -126 -60q-76 0 -112 65q-31 -65 -112 -65q-71 0 -125 60q-61 67 -61 173q0 97 33 168q38 82 99 82q43 0 72 -33.5t29 -79.5q0 -49 -30 -81t-71 -32q-29 0 -54 17q-1 -14 -1 -40q0 -76 38 -121q32 -36 68 -36q28 0 50 19q27 23 27 58
v14h77v-14q0 -35 26 -58q23 -19 50 -19q37 0 68 36q38 45 38 121q0 26 -1 40q-26 -17 -54 -17q-41 0 -71 32t-30 81q0 46 29 79.5t72 33.5q61 0 99 -82q33 -71 33 -168zM441 -704q-6 65 -45 65q-36 0 -36 -47q0 -48 36 -48t45 30zM100 -686q0 47 -36 47q-14 0 -29 -21.5
t-17 -46.5q12 -27 46 -27q36 0 36 48z" />
    <glyph glyph-name="glyph253" horiz-adv-x="496" 
d="M362 -1209q0 -59 -42 -101t-101 -42h-583v81h454q-14 29 -14 62q0 59 42 101t101 42t101 -42t42 -101zM281 -1209q0 62 -62 62t-62 -62t62 -62t62 62z" />
    <glyph glyph-name="glyph254" horiz-adv-x="660" 
d="M599 -1325l-79 -30q-30 81 -104 236q-91 -104 -212 -104q-75 0 -131 44q-60 47 -60 120q0 75 55 122q52 46 129 46q119 0 212 -87q61 129 61 443h83q0 -363 -86 -510q36 -50 72 -137q52 -126 60 -143zM365 -1053q-78 81 -168 81q-103 0 -103 -87q0 -83 110 -83
q89 0 161 89z" />
    <glyph glyph-name="glyph255" horiz-adv-x="561" 
d="M478 -461l-74 -52q-32 53 -90 53q-96 0 -96 -100q0 -58 66 -147q61 -84 122 -167q66 -106 66 -203q0 -127 -69 -203t-194 -76q-86 0 -150 47q-69 52 -69 136q0 64 41 101q14 12 76 44q41 21 41 48q0 51 -48 51q-47 0 -45 -50h-83q0 57 36 95t92 38q60 0 95.5 -38
t35.5 -99t-79 -105t-79 -78q0 -48 44 -76q38 -24 89 -24q181 0 181 184q0 102 -129.5 271t-129.5 257q0 83 50 133.5t132 50.5q104 0 168 -91z" />
    <glyph glyph-name="glyph256" horiz-adv-x="258" 
d="M170 -738q0 -618 -545 -618v102q442 0 442 505q0 85 -23 330h101q25 -191 25 -319z" />
    <glyph glyph-name="glyph257" horiz-adv-x="360" 
d="M226 -1179q0 -134 -134 -173l-27 87q71 23 71 79q0 39 -25.5 68.5t-63.5 29.5q-88 0 -88 -107h-93q0 107 -88 107q-38 0 -63.5 -29.5t-25.5 -68.5q0 -56 71 -79l-27 -87q-134 39 -134 173q0 76 52.5 128.5t128.5 52.5q92 0 132 -70q16 30 58 50q39 20 75 20
q76 0 128.5 -52.5t52.5 -128.5z" />
    <glyph glyph-name="glyph258" horiz-adv-x="455" 
d="M355 -762q0 -73 -35 -128q-39 -61 -107 -74q84 -80 84 -190q0 -87 -52.5 -143.5t-139.5 -56.5q-82 0 -118 62q-35 -62 -118 -62q-72 0 -118 50.5t-46 123.5q0 147 149 190l24 -78q-92 -30 -92 -109q0 -37 22 -65q24 -31 59 -31q79 0 79 77v26h84v-26q0 -77 78 -77
q50 0 80 38q28 35 28 86q0 135 -137 179v83h92q50 0 78 39q24 35 24 86q0 10 -1 20l81 8q2 -14 2 -28z" />
    <glyph glyph-name="glyph259" horiz-adv-x="967" 
d="M377 -262h-123q65 -66 65 -159q0 -119 -91 -189q-84 -63 -207 -63q-124 0 -207 63q-92 70 -92 189q0 92 65 159h-123v97h328q17 46 17 122q0 84 -46 173l88 47q55 -113 55 -219q0 -79 -10 -123h281v-97zM222 -420q0 79 -64 121q-55 37 -137 37q-83 0 -138 -37
q-64 -42 -64 -121q0 -78 64 -120q55 -36 138 -36q82 0 137 36q64 42 64 120zM878 -713q0 -230 -118 -357q-102 -109 -250 -109q-119 0 -202 70q-89 75 -89 193q0 80 54 134.5t135 54.5q80 0 135 -55t55 -135q0 -85 -65 -142q82 0 146 76q80 94 80 262q0 199 -81 360
q-64 129 -159 202l50 99q133 -99 217 -269q92 -183 92 -384zM483 -916q0 31 -22 52.5t-53 21.5t-53 -21.5t-22 -52.5t22 -53t53 -22t53 22t22 53z" />
    <glyph glyph-name="glyph260" horiz-adv-x="590" 
d="M602 -302q0 -144 -82 -236q-86 -97 -228 -97q-94 0 -171 50q-18 -68 -73.5 -107t-126.5 -39q-106 0 -164 66q-56 -66 -163 -66q-87 0 -147.5 57.5t-60.5 144.5q0 85 56 129q23 19 104 51q56 21 56 52q0 61 -58 61q-55 0 -54 -60h-99q0 68 43 113.5t111 45.5
q72 0 114 -45.5t42 -118.5q0 -70 -56 -103l-104 -42q-56 -25 -56 -75q0 -41 32 -67.5t74 -26.5q43 0 80.5 28.5t37.5 70.5v18h98v-18q0 -41 36 -70t78 -29q109 0 109 99q0 33 -20 67q-23 38 -54 38h-98v99h148q16 58 61 97t103 39q74 0 124 -59q47 -56 47 -131
q0 -117 -85 -162q23 -6 46 -6q95 0 150 71q49 65 49 163q0 136 -86 228.5t-221 92.5v101q74 0 113 62q32 52 32 132q0 77 -30 140l94 31q36 -100 36 -188q0 -139 -93 -216q118 -41 189 -151q67 -105 67 -234zM226 -366q0 75 -56 75t-56 -75q0 -74 56 -74t56 74z" />
    <glyph glyph-name="glyph261" horiz-adv-x="572" 
d="M196 -189q0 -101 -73 -167q61 -41 61 -118q0 -82 -52.5 -130.5t-135.5 -48.5q-89 0 -139 57q-52 -60 -134 -60q-85 0 -143 59.5t-58 144.5q0 93 58 154t150 61v-94q-114 0 -114 -106q0 -51 28.5 -85t78.5 -34q36 0 63 20.5t27 54.5v16h87v-16q0 -37 29 -59.5t67 -22.5
q40 0 70 22q34 24 34 63q0 81 -116 81v85q120 0 120 113q8 84 -26 156l80 49q49 -71 38 -195zM452 -331q0 -668 -590 -668q-150 0 -303 59l53 102q134 -41 258 -41q256 0 369 145q101 129 101 391q0 89 -25 356h110q27 -209 27 -344z" />
    <glyph glyph-name="glyph262" horiz-adv-x="472" 
d="M391 -216q0 -189 -88 -318q-100 -148 -280 -148q-132 0 -218 84h-861v108h797q-9 34 -9 71q0 80 54.5 134.5t134.5 54.5t135 -55t55 -135q0 -86 -65 -142q111 0 174 119q52 97 52 219q0 164 -58 309q-64 162 -182 253l50 99q144 -108 228 -291q81 -175 81 -362zM-4 -419
q0 30 -22 52t-53 22t-53 -22t-22 -52q0 -31 22 -53t53 -22t53 22t22 53z" />
    <glyph glyph-name="glyph263" horiz-adv-x="270" 
d="M289 -351q0 -144 -82 -237q-86 -96 -228 -96q-131 0 -218 86h-854v108h790q-11 37 -11 75q0 75 49 132.5t122 57.5q74 0 124 -59q47 -56 47 -131q0 -118 -85 -163q23 -5 45 -5q96 0 150 71q50 65 50 163q0 136 -85 227q-88 94 -223 94v101q75 0 113 62q32 52 32 131
q0 78 -29 141l94 30q36 -99 36 -187q0 -139 -93 -216q118 -41 188 -151q68 -105 68 -234zM-87 -415q0 75 -56 75t-56 -75t56 -75t56 75z" />
    <glyph glyph-name="glyph264" horiz-adv-x="383" 
d="M367 101l-95 -61q-35 65 -105 65q-98 0 -98 -137q0 -53 59 -148q92 -150 109 -185q58 -122 58 -238q0 -169 -86 -268q-91 -104 -257 -104q-125 0 -201.5 75.5t-76.5 199.5q0 59 23 102h-753v108h641q-19 39 -19 83q0 79 56 135t135 56t135 -54t56 -133q0 -89 -83 -164
t-83 -132q0 -160 175 -160q125 0 180 68q49 63 49 195q0 117 -114 296t-114 275q0 102 50 168q55 73 154 73q128 0 205 -115zM-160 -407q0 34 -24.5 58.5t-58.5 24.5t-58.5 -24.5t-24.5 -58.5q0 -60 33 -83h59q74 21 74 83z" />
    <glyph glyph-name="glyph265" horiz-adv-x="310" 
d="M-88 -388q0 -71 -50.5 -121t-121.5 -50h-700v97h546q-17 35 -17 74q0 71 50 121.5t121 50.5t121.5 -50.5t50.5 -121.5zM-185 -388q0 31 -22 53t-53 22q-30 0 -52 -22t-22 -53q0 -30 22 -52t52 -22q31 0 53 22t22 52zM191 -268q0 -668 -589 -668q-151 0 -304 59l53 102
q134 -41 258 -41q256 0 369 145q101 129 101 391q0 89 -25 356h110q27 -209 27 -344z" />
    <glyph glyph-name="glyph266" horiz-adv-x="625" 
d="M204 -381q0 -114 -51 -188q-58 -84 -167 -84q-39 0 -85 21.5t-64 53.5q-19 -32 -61 -53.5t-81 -21.5q-87 0 -143 62q-54 59 -54 147q0 176 178 228l29 -94q-110 -35 -110 -130q0 -44 27.5 -80t69.5 -36q95 0 95 93v31h101v-31q0 -93 101 -93q117 0 117 175
q0 91 -40.5 227t-91.5 213l78 47q152 -287 152 -487zM506 -277q0 -668 -590 -668q-150 0 -303 59l53 102q134 -41 258 -41q256 0 369 145q101 129 101 391q0 89 -25 356h110q27 -209 27 -344z" />
    <glyph glyph-name="glyph267" horiz-adv-x="1215" 
d="M448 416q7 -18 12 -40q5 -19 9 -45t4 -58q0 -48 -9.5 -87.5t-23 -73t-28.5 -62.5t-27 -56q7 1 13 1h15q64 0 109 -21t74 -52.5t42.5 -70t13.5 -72.5q0 -55 -19 -95.5t-51 -67.5t-73.5 -40.5t-87.5 -13.5q-40 0 -76 14t-63.5 38t-44 56t-16.5 68v19q0 8 3 19
q-17 -13 -28 -34.5t-17 -44t-8.5 -42.5t-2.5 -30q0 -50 22 -91t60.5 -70.5t89.5 -46t108 -16.5q73 0 138.5 31t115 83t78.5 120.5t29 143.5h108q0 -154 -97 -297q-132 -197 -372 -197q-87 0 -159.5 26t-124.5 71t-81 107t-29 134q0 42 13.5 89t38.5 91.5t61.5 83t83.5 65.5
q11 31 31 69.5t39.5 78.5t34 79t14.5 71t-4.5 63.5t-12.5 58.5zM536 -224q0 25 -8.5 44.5t-23 32.5t-34 20t-41.5 7q-32 0 -50.5 -8.5t-34.5 -14.5q-6 -17 -11.5 -33.5t-5.5 -39.5q0 -56 27.5 -80t83.5 -24q22 0 40 9t31 22.5t20 30.5t7 34zM1022 -919q0 75 -56 75t-56 -75
t56 -75t56 75zM1398 -855q0 -73 -22.5 -134t-63 -105.5t-98 -69t-127.5 -24.5q-60 0 -113 20t-92.5 56t-63 85.5t-23.5 107.5q0 37 12.5 71t35.5 60.5t54 42.5t69 16q37 0 68.5 -16t54 -42.5t35.5 -61t13 -70.5q0 -116 -86 -163q12 -2 23.5 -3.5t22.5 -1.5q45 0 82 17.5
t63 48.5t40.5 74t14.5 94q0 69 -23.5 128t-64.5 101.5t-97.5 67t-122.5 24.5v101q34 0 61 14t46 39.5t28.5 61t9.5 78.5q0 76 -30 141l95 30q36 -99 36 -187q0 -140 -94 -216q57 -20 104.5 -58t81.5 -89t52.5 -112t18.5 -126z" />
    <glyph glyph-name="glyph268" horiz-adv-x="1341" 
d="M1421 -114l-89 -62q-38 64 -108 64q-115 0 -115 -120q0 -70 79 -178q74 -100 147 -199q79 -128 79 -244q0 -152 -81 -242q-85 -93 -235 -93q-103 0 -179 57q-84 62 -84 163q0 77 50 121q16 14 91 53q49 26 49 58q0 61 -58 61q-57 0 -54 -60h-99q0 68 43 113.5t111 45.5
q72 0 114 -45.5t42 -118.5t-95 -126.5t-95 -93.5q0 -58 54 -91q45 -29 107 -29q216 0 216 221q0 101 -80 223q-75 101 -150 203q-80 117 -80 208q0 99 60 159.5t159 60.5q124 0 201 -109zM917 -221q0 -153 -97 -297q-131 -197 -372 -197q-193 0 -302 113q-92 95 -92 225
q0 119 93 229v84q0 384 -62 458l88 70q57 -80 73 -254q6 -74 6 -274q56 59 161 59q107 0 175 -53q74 -58 74 -161q0 -90 -66 -153.5t-157 -63.5q-180 0 -250 144q-21 -42 -21 -83q0 -107 93 -170q81 -54 187 -54q147 0 254 113t107 265h108zM546 -224q0 50 -37.5 77
t-88.5 27q-113 0 -153 -65q36 -135 171 -135q108 0 108 96z" />
    <glyph glyph-name="glyph269" horiz-adv-x="612" 
d="M191 101q0 -668 -589 -668q-151 0 -304 59l53 102q134 -41 258 -41q256 0 369 145q101 129 101 391q0 89 -25 356h110q27 -209 27 -344zM632 -669q0 -138 -77 -231q-86 -102 -234 -102q-116 0 -201 72q-91 77 -91 197q0 79 50.5 134.5t120.5 55.5t120.5 -55.5
t50.5 -134.5q0 -71 -86 -162q24 -6 46 -6q95 0 150 71q50 65 50 163q0 126 -76 218q-87 103 -232 103v101q74 0 112 61q33 52 33 133q0 77 -29 140l94 31q36 -100 36 -187q0 -140 -94 -216q122 -43 192 -156q65 -104 65 -230zM274 -733q0 30 -24.5 52.5t-49.5 22.5t-48 -22
q-26 -23 -26 -53q0 -82 69 -121q79 52 79 121z" />
    <glyph glyph-name="glyph270" horiz-adv-x="1160" 
d="M1077 1265q0 -117 -69 -197q-72 -84 -187 -84h-137v-168h388v-96h-207q207 -116 207 -315q0 -178 -161 -297q-147 -108 -331 -108t-331 108q-161 119 -161 297q0 100 71 188q62 78 160 127h-231v96h400v168h-400v136h733q54 0 88 47q32 43 32 98q0 51 -28 93
q-32 47 -80 50l11 136q102 -10 169 -94q64 -80 64 -185zM1199 -637l-87 -14q-9 83 -40 248q-30 -91 -106 -146t-171 -55q-154 0 -243 132q-98 -132 -243 -132q-125 0 -209 88.5t-84 214.5q0 150 119 244l86 -83q-85 -75 -85 -161q0 -76 49 -129.5t124 -53.5q76 0 129.5 53.5
t53.5 129.5h120q0 -76 53.5 -129.5t129.5 -53.5q75 0 124 53.5t49 129.5q0 150 -132 228l57 105q152 -89 226 -295q43 -118 80 -374zM936 411q0 119 -125 187q-102 56 -231 56t-231 -56q-125 -68 -125 -187t125 -187q102 -56 231 -56t231 56q125 68 125 187z" />
    <glyph glyph-name="glyph271" 
d="M1336 381q0 -80 -26.5 -149.5t-73.5 -121t-110.5 -81t-137.5 -29.5q-174 0 -276 138q-101 -138 -273 -138q-76 0 -140.5 27.5t-111 76.5t-73 116t-26.5 145q0 53 9 96.5t30.5 79.5t56 66t85.5 56q54 28 85 56t47 54.5t20.5 49.5t4.5 41q0 63 -36 101.5t-99 38.5
q-26 0 -49.5 -8.5t-40.5 -23.5t-27 -36t-10 -46q0 -46 20 -68l-116 -68q-40 52 -40 140q0 52 21 97t57 78t84 52t103 19q52 0 95.5 -15t77 -43t56 -66.5t32.5 -84.5q48 -29 105.5 -43t105.5 -14q221 0 221 128q0 46 -33 71t-81 25q-15 0 -52 -12l-52 126q47 22 108 22
q50 0 94.5 -18t78.5 -49.5t53.5 -74.5t19.5 -92q0 -62 -25 -111t-70.5 -83t-109.5 -51.5t-141 -17.5q-55 0 -116 9t-108 28q-12 -48 -36 -82.5t-55 -61t-66.5 -47t-69.5 -40.5q-12 -7 -29.5 -20t-33 -33t-27 -47t-11.5 -62q0 -45 16 -83.5t44 -67.5t66 -45.5t82 -16.5
q48 0 87 17t67 46.5t43.5 69.5t15.5 87h136q0 -46 14.5 -86t41.5 -70t65.5 -47t85.5 -17q44 0 82.5 17t67.5 46t45.5 67.5t16.5 82.5q0 35 -12 68t-33.5 60.5t-50.5 48t-63 31.5l37 128q54 -15 101.5 -48.5t82 -78.5t54.5 -99t20 -110zM1266 -341q0 -133 -110 -211l-62 84
q67 49 67 124q0 22 -8.5 42.5t-23.5 36t-34.5 25t-41.5 9.5q-116 0 -116 -88q0 -2 1.5 -12t3.5 -22t3.5 -24t1.5 -19q0 -97 -28 -153q70 -70 120 -182l-91 -45q-12 23 -32 55t-49 75q-83 -134 -223 -134q-44 0 -82 12.5t-66 35.5t-43.5 55t-15.5 71q0 40 16.5 74t46 58.5
t69 38t85.5 13.5q87 0 170 -49q10 29 10 73q0 167 -122 167q-116 0 -116 -111h-106q0 111 -101 111q-51 0 -82.5 -31t-31.5 -80q0 -80 80 -119l-50 -90q-134 71 -134 212q0 44 17.5 84t47.5 70t69.5 47.5t83.5 17.5q106 0 153 -74q51 74 170 74q117 0 173 -89q65 89 168 89
q46 0 85.5 -17.5t67.5 -47.5t44 -70t16 -86zM786 -578q-59 45 -134 45q-103 0 -103 -68q0 -67 95 -67q103 0 142 90z" />
    <glyph glyph-name="glyph272" horiz-adv-x="808" 
d="M1072 405q0 -178 -161 -297q-147 -108 -331 -108t-331 108q-161 119 -161 297q0 100 71 188q62 78 160 127h-231v96h400v168h-416v136h718v-136h-106v-168h388v-96h-207q207 -116 207 -315zM1199 -637l-87 -14q-9 83 -40 248q-30 -91 -106 -146t-171 -55q-154 0 -243 132
q-98 -132 -243 -132q-125 0 -209 88.5t-84 214.5q0 150 119 244l86 -83q-85 -75 -85 -161q0 -76 49 -129.5t124 -53.5q76 0 129.5 53.5t53.5 129.5h120q0 -76 53.5 -129.5t129.5 -53.5q75 0 124 53.5t49 129.5q0 150 -132 228l57 105q152 -89 226 -295q43 -118 80 -374z
M936 411q0 119 -125 187q-102 56 -231 56t-231 -56q-125 -68 -125 -187t125 -187q102 -56 231 -56t231 56q125 68 125 187z" />
    <glyph glyph-name="glyph273" horiz-adv-x="1116" 
d="M1336 381q0 -80 -26.5 -149.5t-73.5 -121t-110.5 -81t-137.5 -29.5q-174 0 -276 138q-101 -138 -273 -138q-76 0 -140.5 27.5t-111 76.5t-73 116t-26.5 145q0 53 9 96.5t30.5 79.5t56 66t85.5 56q54 28 85 56t47 54.5t20.5 49.5t4.5 41q0 63 -36 101.5t-99 38.5
q-26 0 -49.5 -8.5t-40.5 -23.5t-27 -36t-10 -46q0 -46 20 -68l-116 -68q-40 52 -40 140q0 52 21 97t57 78t84 52t103 19q52 0 95.5 -15t77 -43t56 -66.5t32.5 -85.5q35 -35 89 -60.5t126 -25.5q36 0 67 6t54.5 16.5t37 26t13.5 33.5t-7 29.5t-25.5 17.5t-52 8.5t-86.5 2.5
v136h352v-136h-56q11 -30 11 -60q0 -49 -23.5 -89t-63.5 -68.5t-94.5 -44t-115.5 -15.5q-39 0 -70.5 4.5t-58.5 13.5t-50.5 21.5t-47.5 29.5q-12 -48 -36 -83t-55 -61.5t-67 -47.5t-70 -41q-12 -7 -29.5 -20t-33 -33t-27 -47t-11.5 -62q0 -45 16 -83.5t44 -67.5t66 -45.5
t82 -16.5q48 0 87 17t67 46.5t43.5 69.5t15.5 87h136q0 -46 14.5 -86t41.5 -70t65.5 -47t85.5 -17q44 0 82.5 17t67.5 46t45.5 67.5t16.5 82.5q0 35 -12 68t-33.5 60.5t-50.5 48t-63 31.5l37 128q54 -15 101.5 -48.5t82 -78.5t54.5 -99t20 -110zM1266 -341q0 -133 -110 -211
l-62 84q67 49 67 124q0 22 -8.5 42.5t-23.5 36t-34.5 25t-41.5 9.5q-116 0 -116 -88q0 -6 1.5 -16.5t3.5 -22t3.5 -22t1.5 -16.5q0 -96 -28 -153q72 -70 120 -182l-91 -45q-12 23 -32 55t-49 75q-83 -134 -223 -134q-44 0 -82 12.5t-66 35.5t-43.5 55t-15.5 71q0 40 16.5 74
t46 58.5t69 38t85.5 13.5q87 0 170 -49q10 29 10 73q0 167 -122 167q-116 0 -116 -111h-106q0 111 -101 111q-49 0 -81.5 -31t-32.5 -80q0 -80 80 -119l-50 -90q-134 71 -134 212q0 44 17.5 84t47.5 70t69.5 47.5t83.5 17.5q106 0 153 -74q51 74 170 74q117 0 173 -89
q65 89 168 89q46 0 85.5 -17.5t67.5 -47.5t44 -70t16 -86zM786 -578q-60 45 -134 45q-103 0 -103 -68q0 -67 95 -67q103 0 142 90z" />
    <glyph glyph-name="glyph274" horiz-adv-x="504" 
d="M429 -269h-137q73 -73 73 -176q0 -133 -102 -211q-93 -70 -230 -70q-138 0 -230 70q-102 78 -102 211q0 102 73 176h-137v108h364q19 51 19 135q0 94 -51 193l98 52q61 -126 61 -244q0 -87 -12 -136h313v-108zM257 -444q0 87 -71 134q-61 41 -153 41t-154 -41
q-70 -47 -70 -134q0 -88 71 -134q61 -40 153 -40t153 40q71 46 71 134zM603 -1188l-77 -93q-74 90 -107 159q-64 -144 -221 -144q-44 0 -93 24q-53 25 -73 60q-20 -36 -67.5 -60t-89.5 -24q-97 0 -159 69q-60 66 -60 164q0 195 198 253l32 -104q-122 -40 -122 -145
q0 -49 29 -87q31 -42 79 -42q105 0 105 104v34h112v-34q0 -48 32 -76t80 -28q67 0 103 52q32 45 32 115q0 83 -50.5 147t-131.5 90l44 104q160 -60 239 -251q62 -189 166 -287z" />
    <glyph glyph-name="glyph275" horiz-adv-x="1160" 
d="M1077 1265q0 -117 -69 -197q-72 -84 -187 -84h-137v-168h388v-96h-207q207 -116 207 -315q0 -178 -161 -297q-147 -108 -331 -108t-331 108q-161 119 -161 297q0 100 71 188q62 78 160 127h-231v96h400v168h-400v136h733q54 0 88 47q32 43 32 98q0 51 -28 93
q-32 47 -80 50l11 136q102 -10 169 -94q64 -80 64 -185zM1199 -637l-87 -14q-9 83 -40 248q-30 -91 -106 -146t-171 -55q-154 0 -243 132q-98 -132 -243 -132q-125 0 -209 88.5t-84 214.5q0 150 119 244l86 -83q-85 -75 -85 -161q0 -76 49 -129.5t124 -53.5q76 0 129.5 53.5
t53.5 129.5h120q0 -76 53.5 -129.5t129.5 -53.5q75 0 124 53.5t49 129.5q0 150 -132 228l57 105q152 -89 226 -295q43 -118 80 -374zM936 411q0 119 -125 187q-102 56 -231 56t-231 -56q-125 -68 -125 -187t125 -187q102 -56 231 -56t231 56q125 68 125 187zM994 -982
q0 -105 -50 -187q-58 -97 -156 -97q-55 0 -92 45q-34 42 -34 98q0 58 34.5 100.5t91.5 42.5q34 0 65.5 -19t39.5 -42v50q0 77 -30 145q-38 87 -105 87q-45 0 -77.5 -32.5t-32.5 -77.5h-102q0 46 -30.5 75.5t-75.5 29.5q-95 0 -95 -74q0 -86 60 -86h40v-95h-40q-27 0 -44 -26
q-16 -22 -16 -50q0 -70 71 -70q29 0 48.5 21t19.5 50l86 -68q-12 -48 -58 -77q-42 -27 -94 -27q-73 0 -122 43q-52 44 -52 116q0 100 61 135q-61 37 -61 134q0 78 59 128q56 47 137 47q41 0 88 -23.5t68 -56.5q22 33 71.5 56.5t90.5 23.5q114 0 180 -107q56 -91 56 -212z
M869 -1121q-8 22 -33 40t-48 18q-43 0 -43 -60q0 -20 12.5 -40t31.5 -20q52 0 80 62z" />
    <glyph glyph-name="glyph276" horiz-adv-x="808" 
d="M1072 405q0 -178 -161 -297q-147 -108 -331 -108t-331 108q-161 119 -161 297q0 100 71 188q62 78 160 127h-231v96h400v168h-416v136h718v-136h-106v-168h388v-96h-207q207 -116 207 -315zM1199 -637l-87 -14q-9 83 -40 248q-30 -91 -106 -146t-171 -55q-154 0 -243 132
q-98 -132 -243 -132q-125 0 -209 88.5t-84 214.5q0 150 119 244l86 -83q-85 -75 -85 -161q0 -76 49 -129.5t124 -53.5q76 0 129.5 53.5t53.5 129.5h120q0 -76 53.5 -129.5t129.5 -53.5q75 0 124 53.5t49 129.5q0 150 -132 228l57 105q152 -89 226 -295q43 -118 80 -374z
M936 411q0 119 -125 187q-102 56 -231 56t-231 -56q-125 -68 -125 -187t125 -187q102 -56 231 -56t231 56q125 68 125 187zM994 -982q0 -105 -50 -187q-58 -97 -156 -97q-55 0 -92 45q-34 42 -34 98q0 58 34.5 100.5t91.5 42.5q34 0 65.5 -19t39.5 -42v50q0 77 -30 145
q-38 87 -105 87q-45 0 -77.5 -32.5t-32.5 -77.5h-102q0 46 -30.5 75.5t-75.5 29.5q-95 0 -95 -74q0 -86 60 -86h40v-95h-40q-27 0 -44 -26q-16 -22 -16 -50q0 -70 71 -70q29 0 48.5 21t19.5 50l86 -68q-12 -48 -58 -77q-42 -27 -94 -27q-73 0 -122 43q-52 44 -52 116
q0 100 61 135q-61 37 -61 134q0 78 59 128q56 47 137 47q41 0 88 -23.5t68 -56.5q22 33 71.5 56.5t90.5 23.5q114 0 180 -107q56 -91 56 -212zM869 -1121q-8 22 -33 40t-48 18q-43 0 -43 -60q0 -20 12.5 -40t31.5 -20q52 0 80 62z" />
    <glyph glyph-name="glyph277" horiz-adv-x="1160" 
d="M1072 405q0 -178 -161 -297q-147 -108 -331 -108t-331 108q-161 119 -161 297q0 100 71 188q62 78 160 127h-231v96h347q91 0 173 87q73 77 96 172q-54 -29 -117 -29q-103 0 -176 73t-73 176q0 105 73.5 177t177.5 72q128 0 201 -106q65 -93 65 -226q0 -231 -157 -396
h374v-96h-207q207 -116 207 -315zM717 1240q0 83 -42 129q-35 39 -88 39q-47 0 -80 -33t-33 -80t33 -80t80 -33q96 0 130 58zM936 411q0 119 -125 187q-102 56 -231 56t-231 -56q-125 -68 -125 -187t125 -187q102 -56 231 -56t231 56q125 68 125 187z" />
    <glyph glyph-name="glyph278" horiz-adv-x="1552" 
d="M1465 562q0 -115 -30 -217t-84 -178.5t-129 -121.5t-165 -45q-186 0 -322 177q-125 -177 -336 -177q-67 0 -124 22t-98.5 61t-65 91.5t-23.5 113.5q0 58 22 106.5t61.5 83.5t94.5 54.5t121 19.5q42 0 88 -11t89.5 -29.5t80 -44t59.5 -54.5q20 57 20 142q0 182 -76 303
q-10 -36 -30.5 -66.5t-49.5 -52.5t-64 -34.5t-73 -12.5q-47 0 -87.5 17.5t-71 48t-48 71t-17.5 87.5t18 88t48.5 71t71.5 47.5t88 17.5q179 0 307 -192q120 -179 120 -398q0 -123 -51 -247q103 -135 244 -135q64 0 114.5 31.5t85.5 85.5t53.5 126.5t18.5 154.5
q0 110 -18 215t-48.5 195.5t-70 161t-82.5 112.5q-15 -34 -38 -62.5t-52 -48.5t-62.5 -31.5t-67.5 -11.5q-47 0 -87.5 17.5t-71 48t-48 71t-17.5 87.5t18 88t48.5 71t71 47.5t86.5 17.5q72 0 142 -35t133 -96.5t116.5 -144.5t92.5 -179q28 -68 46 -143t29 -146t15.5 -133
t4.5 -105zM640 285q-105 131 -254 131q-35 0 -64.5 -9t-51.5 -24.5t-34 -37.5t-12 -49q0 -28 14 -51.5t39 -40.5t60 -26.5t78 -9.5q148 0 225 117zM564 948q-56 56 -133 56q-18 0 -34 -7t-28 -19t-19 -28t-7 -34t7 -34t19 -28t28 -19t34 -7q98 0 133 120zM1010 1345
q-39 35 -67.5 49t-58.5 14q-18 0 -34 -7t-28 -19t-19 -28t-7 -34t7 -34t19 -28t28 -19t34 -7t38.5 10t38.5 26.5t31 36.5t18 40z" />
    <glyph glyph-name="glyph279" horiz-adv-x="1248" 
d="M1161 527v-527h-137v460q0 213 -92 364q-109 180 -308 180t-308 -180q-92 -151 -92 -364v-460h-136v460q0 315 179 516q-144 80 -144 258q0 144 100 229q95 81 241 81q334 0 532 -357q165 -297 165 -660zM943 1015q-65 159 -182 267q-136 126 -289 126q-92 0 -150 -44
q-63 -48 -63 -138q0 -61 38.5 -102.5t98.5 -42.5q105 59 228 59q182 0 319 -125z" />
    <glyph glyph-name="glyph280" horiz-adv-x="2376" 
d="M989 0q-175 0 -277 138q-101 -138 -273 -138q-75 0 -139.5 29t-111.5 79.5t-73.5 118.5t-26.5 147q0 60 19 122t57.5 113t95.5 83t134 32q42 0 75 -8.5t57 -20.5t40.5 -25t26.5 -22l-88 -113q-6 5 -17.5 14t-26.5 17.5t-32 14.5t-33 6q-39 0 -70.5 -17t-54 -45t-35 -63.5
t-12.5 -72.5q0 -45 16.5 -85.5t44.5 -70.5t66 -47.5t81 -17.5q48 0 87 17t67 46.5t43.5 69.5t15.5 87h136q0 -46 15 -86t42.5 -70t65.5 -47t85 -17q49 0 88 17t66.5 46.5t42 69.5t14.5 87q0 50 -11 87.5t-34.5 67t-60 54t-86.5 47.5l60 120q18 -12 34.5 -24t35.5 -22
t41.5 -16.5t51.5 -6.5q43 0 79 20.5t62 55.5t40 83t14 79v37q0 7 -1 14h-1337v136h1289q-43 61 -135 118l60 114q143 -87 210 -232h144v-136h-107q1 -8 1 -17q0 -87 -21 -152.5t-58.5 -117.5t-88.5 -86t-111 -42q65 -76 65 -192q0 -81 -25.5 -150t-71 -119t-109.5 -78.5
t-141 -29.5zM808 -169q0 -43 -26.5 -73t-69.5 -30q-96 0 -96 103q0 20 8.5 49.5t22.5 59.5t31 55t34 37q15 -11 32 -36.5t31.5 -55.5t23.5 -60t9 -49zM848 712q0 -40 -28 -68t-68 -28t-68 28t-28 68t28 68t68 28t68 -28t28 -68zM2288 505q0 -107 -29.5 -199t-82.5 -160
t-127 -107t-163 -39q-66 0 -121 25t-94.5 69.5t-62 105.5t-22.5 133q0 56 20 108t54 91.5t80 63.5t98 24q47 0 82.5 -14t59.5 -38t36 -56t12 -67q0 -29 -11 -54t-29.5 -43.5t-44 -29.5t-53.5 -11q-29 0 -54 10t-43.5 28t-29.5 43.5t-11 56.5q-16 -25 -22.5 -54t-6.5 -58
q0 -35 12 -65.5t34 -52.5t52 -34.5t65 -12.5q60 0 109.5 27.5t84 75t53.5 112.5t19 140q0 100 -31 184.5t-87 146t-133 96t-169 34.5h-740v136h740q122 0 224 -46.5t176 -128.5t115 -194.5t41 -245.5z" />
    <glyph glyph-name="glyph281" horiz-adv-x="1592" 
d="M1516 835q0 -55 -16.5 -101t-47 -80t-74 -56t-97.5 -29q55 -79 55 -192q0 -82 -25.5 -151t-72 -119.5t-111 -78.5t-142.5 -28q-173 1 -273 138q-101 -138 -273 -138q-75 0 -139.5 29t-111.5 79.5t-73.5 118.5t-26.5 147q0 60 19 122t57.5 113t95.5 83t134 32
q42 0 75 -8.5t57 -20.5t40.5 -25t26.5 -22l-88 -113q-6 5 -17.5 14t-26.5 17.5t-32 14.5t-33 6q-39 0 -70.5 -17t-54 -45t-35 -63.5t-12.5 -72.5q0 -45 16.5 -85.5t44.5 -70.5t66 -47.5t81 -17.5q48 0 87 17t67 46.5t43.5 69.5t15.5 87h136q0 -46 15 -86t42.5 -70t65.5 -47
t85 -17q49 0 88.5 17t66.5 46t41.5 69.5t14.5 87.5q0 45 -9 80.5t-30 65.5t-56 56.5t-87 53.5l60 120l78 -45q46 -24 85 -24q33 0 60.5 10t47.5 28t31 44t11 58q0 75 -59 113l82 98q102 -75 102 -211zM1062 1212q0 -187 -115 -347q-128 -177 -305 -177v128q43 1 85.5 22.5
t79 57t64 82t40.5 97.5q-56 -29 -117 -29q-51 0 -96.5 20t-79 53.5t-53.5 79t-20 96.5q0 52 20 97t54 79t80 53.5t97 19.5q59 0 108 -25t84 -69.5t54.5 -105.5t19.5 -132zM920 1242q-2 32 -12 62t-26.5 53t-39 37t-48.5 14q-22 0 -42.5 -9t-36 -24.5t-25 -36t-9.5 -43.5
t9 -43.5t24.5 -36t36 -24.5t43.5 -9q82 0 126 60zM808 -169q0 -43 -27 -73t-69 -30q-45 0 -70.5 29t-25.5 74q0 21 8.5 50.5t22 58.5t31 54t34.5 38q15 -11 32 -36.5t31.5 -55.5t23.5 -59.5t9 -49.5z" />
    <glyph glyph-name="glyph282" horiz-adv-x="1592" 
d="M1516 835q0 -55 -16.5 -101t-47 -80t-74 -56t-97.5 -29q55 -79 55 -192q0 -82 -25.5 -151t-72 -119.5t-111 -78.5t-142.5 -28q-173 1 -273 138q-101 -138 -273 -138q-75 0 -139.5 29t-111.5 79.5t-73.5 118.5t-26.5 147q0 60 19 122t57.5 113t95.5 83t134 32
q42 0 75 -8.5t57 -20.5t40.5 -25t26.5 -22l-88 -113q-6 5 -17.5 14t-26.5 17.5t-32 14.5t-33 6q-39 0 -70.5 -17t-54 -45t-35 -63.5t-12.5 -72.5q0 -45 16.5 -85.5t44.5 -70.5t66 -47.5t81 -17.5q48 0 87 17t67 46.5t43.5 69.5t15.5 87h136q0 -46 15 -86t42.5 -70t65.5 -47
t85 -17q49 0 88.5 17t66.5 46t41.5 69.5t14.5 87.5q0 45 -9 80.5t-30 65.5t-56 56.5t-87 53.5l60 120l78 -45q46 -24 85 -24q33 0 60.5 10t47.5 28t31 44t11 58q0 75 -59 113l82 98q102 -75 102 -211zM808 -169q0 -43 -26.5 -73t-69.5 -30q-96 0 -96 103q0 20 8.5 49.5
t22.5 59.5t31 55t34 37q15 -11 32 -36.5t31.5 -55.5t23.5 -60t9 -49zM848 712q0 -40 -28 -68t-68 -28t-68 28t-28 68t28 68t68 28t68 -28t28 -68zM1330 1268q0 -60 -21.5 -112t-59 -90.5t-89 -60t-111.5 -21.5h-977v136h977q32 0 60 13.5t48.5 35.5t32.5 51t12 60
q0 35 -19 70t-61 54q6 -14 11.5 -25.5t5.5 -35.5q0 -42 -14 -68t-33.5 -39.5t-40 -18t-34.5 -4.5q-29 0 -52.5 12t-40.5 32t-26.5 47.5t-9.5 57.5q0 41 14.5 74.5t40 57.5t60 37t73.5 13q56 0 102.5 -22.5t80.5 -60t52.5 -88t18.5 -105.5z" />
    <glyph glyph-name="glyph283" horiz-adv-x="1914" 
d="M1516 835q0 -55 -16.5 -101t-47 -80t-74 -56t-97.5 -29q55 -79 55 -192q0 -82 -25.5 -151t-72 -119.5t-111 -78.5t-142.5 -28q-173 1 -273 138q-101 -138 -273 -138q-75 0 -139.5 29t-111.5 79.5t-73.5 118.5t-26.5 147q0 60 19 122t57.5 113t95.5 83t134 32
q42 0 75 -8.5t57 -20.5t40.5 -25t26.5 -22l-88 -113q-6 5 -17.5 14t-26.5 17.5t-32 14.5t-33 6q-39 0 -70.5 -17t-54 -45t-35 -63.5t-12.5 -72.5q0 -45 16.5 -85.5t44.5 -70.5t66 -47.5t81 -17.5q48 0 87 17t67 46.5t43.5 69.5t15.5 87h136q0 -46 15 -86t42.5 -70t65.5 -47
t85 -17q49 0 88.5 17t66.5 46t41.5 69.5t14.5 87.5q0 45 -9 80.5t-30 65.5t-56 56.5t-87 53.5l60 120l78 -45q46 -24 85 -24q33 0 60.5 10t47.5 28t31 44t11 58q0 75 -59 113l82 98q102 -75 102 -211zM808 -169q0 -43 -26.5 -73t-69.5 -30q-96 0 -96 103q0 20 8.5 49.5
t22.5 59.5t31 55t34 37q15 -11 32 -36.5t31.5 -55.5t23.5 -60t9 -49zM848 712q0 -40 -28 -68t-68 -28t-68 28t-28 68t28 68t68 28t68 -28t28 -68zM1330 1268q0 -60 -21.5 -112t-59 -90.5t-89 -60t-111.5 -21.5h-977v136h977q32 0 60 13.5t48.5 35.5t32.5 51t12 60
q0 35 -19 70t-61 54q6 -14 11.5 -25.5t5.5 -35.5q0 -42 -14 -68t-33.5 -39.5t-40 -18t-34.5 -4.5q-29 0 -52.5 12t-40.5 32t-26.5 47.5t-9.5 57.5q0 41 14.5 74.5t40 57.5t60 37t73.5 13q56 0 102.5 -22.5t80.5 -60t52.5 -88t18.5 -105.5zM1882 -303q0 -81 -21.5 -161
t-66 -143.5t-113 -103.5t-161.5 -40q-56 0 -111.5 22.5t-99 68.5t-70.5 117t-27 169q0 43 13 81.5t37.5 67t60 45.5t79.5 17q45 0 80.5 -17t59.5 -45.5t37 -67t13 -81.5q0 -45 -16 -79.5t-41 -58t-55.5 -35.5t-59.5 -12q-16 0 -29 1t-27 6q40 -87 154 -87q71 0 119 31.5
t77.5 80.5t42.5 109t13 117q0 75 -25 140t-70.5 113t-108.5 76t-138 28v112q39 0 69 15.5t50.5 44t31 68t10.5 87.5q0 85 -33 156l105 34q40 -110 40 -208q0 -154 -104 -240q64 -22 117 -64.5t90 -99t57.5 -124.5t20.5 -140zM1484 -364q0 32 -21.5 57.5t-60.5 25.5
q-38 0 -60 -25.5t-22 -57.5q0 -30 4.5 -46t12.5 -32q10 -9 25 -11t26 -2q47 0 71.5 26.5t24.5 64.5z" />
    <glyph glyph-name="glyph284" 
d="M1336 381q0 -80 -26.5 -149.5t-73.5 -121t-110.5 -81t-137.5 -29.5q-174 0 -276 138q-101 -138 -273 -138q-76 0 -140.5 27.5t-111 76.5t-73 116t-26.5 145q0 53 9 96.5t30.5 79.5t56 66t85.5 56q54 28 85 56t47 54.5t20.5 49.5t4.5 41q0 63 -36 101.5t-99 38.5
q-26 0 -49.5 -8.5t-40.5 -23.5t-27 -36t-10 -46q0 -46 20 -68l-116 -68q-40 52 -40 140q0 52 21 97t57 78t84 52t103 19q61 0 111 -21t85 -59t54 -90t19 -113q0 -72 -21.5 -121t-56 -84t-76.5 -60t-83 -49q-12 -7 -29.5 -20t-33 -33t-27 -47t-11.5 -62q0 -45 16 -83.5
t44 -67.5t66 -45.5t82 -16.5q48 0 87 17t67 46.5t43.5 69.5t15.5 87h136q0 -46 14.5 -86t41.5 -70t65.5 -47t85.5 -17q44 0 82.5 17t67.5 46t45.5 67.5t16.5 82.5q0 32 -10.5 63.5t-28.5 59t-43.5 49.5t-55.5 35h-272v136h74q53 0 107 32t100.5 82t79.5 112.5t44 124.5
q-55 -29 -117 -29q-51 0 -96.5 20t-79 53.5t-53.5 79t-20 96.5q0 52 20 97t54 79t80 53.5t97 19.5q58 0 105.5 -25t81 -70t51.5 -107t18 -136q0 -277 -222 -482h222v-136h-73q34 -45 53.5 -98t19.5 -109zM1204 1242q-2 33 -12 63t-27 53t-39.5 36.5t-47.5 13.5
q-22 0 -42.5 -9t-36 -24.5t-25 -36t-9.5 -43.5t9 -43.5t24.5 -36t36 -24.5t43.5 -9q82 0 126 60z" />
    <glyph glyph-name="glyph285" 
d="M1336 562q0 -254 -123 -415q-113 -147 -265 -147q-146 0 -236 138q-90 -138 -234 -138q-152 0 -266 147q-124 162 -124 415q0 229 78 397q84 181 216 181q90 0 154 -72.5t64 -175.5t-64 -175.5t-154 -72.5q-95 0 -151 64q-7 -77 -7 -142q0 -193 80 -303q69 -95 166 -95
q73 0 122 55q53 60 53 148v17h136v-17q0 -88 53 -148q49 -55 122 -55q97 0 165 95q79 110 79 303q0 365 -200 651q-63 -121 -199 -121q-93 0 -158.5 65.5t-65.5 158.5t65.5 158.5t158.5 65.5t159 -66q126 -126 220 -301q156 -291 156 -615zM808 -169q0 -43 -26.5 -73
t-69.5 -30q-96 0 -96 103q0 45 31.5 111.5t64.5 89.5q32 -22 64 -90t32 -111zM920 1326q-61 82 -121 82q-36 0 -62 -26t-26 -62t26 -62t62 -26q38 0 75 27t46 67zM463 892q0 46 -23.5 79t-57.5 33t-69 -40.5t-49 -100.5q40 -83 118 -83q34 0 57.5 33t23.5 79z" />
    <glyph glyph-name="glyph286" 
d="M1336 381q0 -80 -26.5 -149.5t-73.5 -121t-110.5 -81t-137.5 -29.5q-174 0 -276 138q-101 -138 -273 -138q-76 0 -140.5 27.5t-111 76.5t-73 116t-26.5 145q0 53 9 96.5t30.5 79.5t56 66t85.5 56q54 28 85 56t47 54.5t20.5 49.5t4.5 41q0 63 -36 101.5t-99 38.5
q-26 0 -49.5 -8.5t-40.5 -23.5t-27 -36t-10 -46q0 -46 20 -68l-116 -68q-40 52 -40 140q0 52 21 97t57 78t84 52t103 19q51 0 94 -15t76 -42t56 -64.5t34 -83.5q26 -20 57 -35t64 -24.5t65.5 -14.5t62.5 -5q61 0 111 19t86 53.5t56 83.5t22 110q-73 -76 -179 -76
q-51 0 -96.5 20t-79 53.5t-53.5 79t-20 96.5t20 96.5t53.5 79t79 53.5t96.5 20q64 0 121 -35t99 -92.5t66.5 -130.5t24.5 -149q0 -89 -29.5 -165t-82.5 -132t-127 -88t-163 -32q-29 0 -61.5 3.5t-66 10.5t-66 18t-60.5 25q-11 -49 -35 -84t-55.5 -61.5t-67.5 -47.5t-70 -41
q-12 -7 -29.5 -20t-33 -33t-27 -47t-11.5 -62q0 -45 16 -83.5t44 -67.5t66 -45.5t82 -16.5q48 0 87 17t67 46.5t43.5 69.5t15.5 87h136q0 -46 14.5 -86t41.5 -70t65.5 -47t85.5 -17q44 0 82.5 17t67.5 46t45.5 67.5t16.5 82.5q0 35 -12 68t-33.5 60.5t-50.5 48t-63 31.5
l37 128q54 -15 101.5 -48.5t82 -78.5t54.5 -99t20 -110zM1061 1273q-53 135 -163 135q-23 0 -43.5 -9t-36 -24.5t-24.5 -36t-9 -43.5t9 -43.5t24.5 -36t36 -24.5t43.5 -9q105 0 163 91z" />
    <glyph glyph-name="glyph287" horiz-adv-x="2258" 
d="M2170 471q0 -192 -96 -324q-107 -147 -292 -147q-202 0 -312 167q-111 -167 -306 -167q-199 0 -315 201q-117 -201 -330 -201q-193 0 -320 198q-111 173 -111 378q0 243 144 406q-109 83 -109 232q0 137 99.5 233.5t237.5 96.5q278 0 404 -370q86 -253 86 -598
q0 -33 -11 -97.5t-11 -97.5q0 -92 74 -154q70 -59 164 -59q120 0 189 92q61 83 61 207q0 326 -288 554l80 119q344 -284 344 -669q0 -17 -3.5 -51t-3.5 -51q0 -84 79 -145q74 -56 160 -56q119 0 188 92q62 84 62 207q0 326 -290 554l80 119q346 -285 346 -669zM1566 -169
q0 -43 -27 -73t-69 -30q-44 0 -70 29.5t-26 73.5q0 45 30.5 110.5t65.5 90.5q33 -24 64.5 -91t31.5 -110zM772 1016q-34 152 -99 253q-89 139 -215 139q-81 0 -140 -56t-59 -137q0 -122 75 -148q87 53 185 53q140 0 253 -104zM814 576q0 150 -69 268q-82 140 -221 140
t-225 -140q-75 -121 -75 -268q0 -150 74 -269q86 -139 226 -139q139 0 221 140q69 118 69 268z" />
    <glyph glyph-name="glyph288" horiz-adv-x="2258" 
d="M1058 1268q0 -58 -19.5 -108t-53.5 -88t-80.5 -61t-100.5 -27q146 -164 146 -408q0 -96 -10.5 -147.5t-11.5 -51.5q1 -44 20.5 -82t52 -66.5t75.5 -44.5t90 -16q57 0 103 22t78.5 61.5t50.5 94.5t18 121q0 81 -19 162t-56 154t-91 134.5t-124 103.5l80 119
q72 -32 135 -96.5t110 -153t74 -195.5t27 -224q0 -7 -1 -21t-2.5 -30t-2.5 -30t-1 -21q0 -38 20 -74.5t53 -64.5t76 -45t90 -17q57 0 103 22.5t78.5 62.5t50.5 94.5t18 119.5q0 81 -17 162.5t-52 154.5t-88.5 134t-126.5 103l74 119q84 -39 148.5 -108t108.5 -158
t66.5 -192.5t22.5 -210.5q0 -102 -28 -188.5t-79 -149t-122.5 -98t-158.5 -35.5q-202 0 -312 167q-111 -167 -306 -167q-200 0 -315 201q-117 -201 -330 -201q-193 0 -320 198q-111 172 -111 378q0 244 146 408h-146v136h689q32 0 60 13.5t48.5 35.5t32.5 51t12 60
q0 35 -19 70t-61 54q6 -14 11.5 -25.5t5.5 -35.5q0 -42 -14 -68t-33.5 -39.5t-40 -18t-34.5 -4.5q-29 0 -52.5 12t-40.5 32t-26.5 47.5t-9.5 57.5q0 41 14.5 74.5t40 57.5t60 37t73.5 13q56 0 102.5 -22.5t80.5 -60t52.5 -88t18.5 -105.5zM814 576q0 82 -21.5 156t-60 130
t-91.5 89t-117 33t-119 -33t-95 -89t-63 -130t-23 -156t23 -156t63 -130t95 -89t119 -33t117 33t91.5 89t60 130t21.5 156zM1566 -169q0 -43 -27 -73t-69 -30q-45 0 -70.5 29t-25.5 74q0 21 8.5 50.5t22 58.5t31 54t34.5 38q15 -11 32 -36.5t31.5 -55.5t23.5 -59.5t9 -49.5z
" />
    <glyph glyph-name="glyph289" horiz-adv-x="2748" 
d="M1058 1268q0 -58 -19.5 -108t-53.5 -88t-80.5 -61t-100.5 -27q146 -164 146 -408q0 -96 -10.5 -147.5t-11.5 -51.5q1 -44 20.5 -82t52 -66.5t75.5 -44.5t90 -16q57 0 103 22t78.5 61.5t50.5 94.5t18 121q0 81 -19 162t-56 154t-91 134.5t-124 103.5l80 119
q72 -32 135 -96.5t110 -153t74 -195.5t27 -224q0 -7 -1 -21t-2.5 -30t-2.5 -30t-1 -21q0 -38 20 -74.5t53 -64.5t76 -45t90 -17q57 0 103 22.5t78.5 62.5t50.5 94.5t18 119.5q0 81 -17 162.5t-52 154.5t-88.5 134t-126.5 103l74 119q84 -39 148.5 -108t108.5 -158
t66.5 -192.5t22.5 -210.5q0 -102 -28 -188.5t-79 -149t-122.5 -98t-158.5 -35.5q-202 0 -312 167q-111 -167 -306 -167q-200 0 -315 201q-117 -201 -330 -201q-193 0 -320 198q-111 172 -111 378q0 244 146 408h-146v136h689q32 0 60 13.5t48.5 35.5t32.5 51t12 60
q0 35 -19 70t-61 54q6 -14 11.5 -25.5t5.5 -35.5q0 -42 -14 -68t-33.5 -39.5t-40 -18t-34.5 -4.5q-29 0 -52.5 12t-40.5 32t-26.5 47.5t-9.5 57.5q0 41 14.5 74.5t40 57.5t60 37t73.5 13q56 0 102.5 -22.5t80.5 -60t52.5 -88t18.5 -105.5zM814 576q0 82 -21.5 156t-60 130
t-91.5 89t-117 33t-119 -33t-95 -89t-63 -130t-23 -156t23 -156t63 -130t95 -89t119 -33t117 33t91.5 89t60 130t21.5 156zM1566 -169q0 -43 -27 -73t-69 -30q-45 0 -70.5 29t-25.5 74q0 21 8.5 50.5t22 58.5t31 54t34.5 38q15 -11 32 -36.5t31.5 -55.5t23.5 -59.5t9 -49.5z
M2716 -303q0 -81 -21.5 -161t-66 -143.5t-113 -103.5t-161.5 -40q-56 0 -111.5 22.5t-99 68.5t-70.5 117t-27 169q0 43 13 81.5t37.5 67t60 45.5t79.5 17q45 0 80.5 -17t59.5 -45.5t37 -67t13 -81.5q0 -45 -16 -79.5t-41 -58t-55.5 -35.5t-59.5 -12q-16 0 -29 1t-27 6
q40 -87 154 -87q71 0 119 31.5t77.5 80.5t42.5 109t13 117q0 75 -25 140t-70.5 113t-108.5 76t-138 28v112q39 0 69 15.5t50.5 44t31 68t10.5 87.5q0 85 -33 156l105 34q40 -110 40 -208q0 -154 -104 -240q64 -22 117 -64.5t90 -99t57.5 -124.5t20.5 -140zM2318 -364
q0 32 -21.5 57.5t-60.5 25.5q-38 0 -60 -25.5t-22 -57.5q0 -30 4.5 -46t12.5 -32q10 -9 25 -11t26 -2q47 0 71.5 26.5t24.5 64.5z" />
    <glyph glyph-name="glyph290" 
d="M1336 374q0 -156 -97 -263q-100 -111 -254 -111q-173 0 -273 138q-100 -138 -273 -138q-154 0 -254 111q-97 107 -97 263q0 163 110 267q-99 76 -99 216q0 123 72 203t194 80q107 0 181 -73l-97 -97q-35 34 -84 34q-61 0 -97 -44q-33 -40 -33 -103q0 -134 174 -134
q24 0 75 1v-136h-111q-72 0 -113 -66q-36 -57 -36 -133q0 -90 59 -154q60 -67 149 -67q95 0 154 62.5t59 157.5h136q0 -95 58 -157.5t153 -62.5q89 0 149 67q59 64 59 154q0 77 -35 133q-42 66 -114 66h-111v136q92 5 162 143q56 111 68 223q-64 -44 -142 -44
q-103 0 -176 73t-73 176t73 176t176 73q134 0 211 -107q67 -95 67 -235q0 -301 -182 -493q102 -37 159 -133q53 -88 53 -202zM1186 1273q-37 135 -158 135q-46 0 -79.5 -33.5t-33.5 -79.5t33.5 -79.5t79.5 -33.5q120 0 158 91z" />
    <glyph glyph-name="glyph291" horiz-adv-x="1288" 
d="M1200 560q0 -231 -162.5 -395.5t-393.5 -164.5t-393.5 164.5t-162.5 395.5q0 262 200 430q-123 88 -123 251q0 145 106 227q97 76 246 76q323 0 518 -345q165 -289 165 -639zM984 1003q-151 405 -463 405q-91 0 -152 -42q-70 -47 -70 -134q0 -62 38.5 -107t99.5 -45
q99 40 207 40q190 0 340 -117zM1052 576q0 169 -119.5 288.5t-288.5 119.5t-288.5 -119.5t-119.5 -288.5t119.5 -288.5t288.5 -119.5t288.5 119.5t119.5 288.5zM740 588q0 -40 -28 -68t-68 -28t-68 28t-28 68t28 68t68 28t68 -28t28 -68z" />
    <glyph glyph-name="glyph292" 
d="M1336 361q0 -152 -103.5 -256.5t-255.5 -104.5q-163 0 -265 138q-102 -138 -264 -138q-165 0 -267 136q-93 124 -93 295q0 342 225 538q-124 88 -124 252q0 152 104 240q99 83 253 83q308 0 495 -270q165 -240 165 -565q0 -32 -7 -62q63 -40 102 -126q35 -79 35 -160z
M1026 1031q-59 158 -183 262q-135 115 -294 115q-97 0 -159 -48q-67 -53 -67 -148q0 -58 35.5 -103t92.5 -49q126 60 263 60q176 0 312 -89zM1200 351q0 124 -72 175q-55 -47 -124 -47q-57 0 -96 37t-39 93q0 47 35 88.5t82 41.5q58 0 92 -16q0 124 -120 198
q-103 63 -235 63q-222 0 -363 -158q-136 -153 -136 -382q0 -112 49 -187q57 -89 163 -89q92 0 152 64q57 63 57 156h136q0 -93 57 -156.5t150 -63.5q84 0 145 49q67 53 67 134z" />
    <glyph glyph-name="glyph293" 
d="M1336 361q0 -152 -103.5 -256.5t-255.5 -104.5q-163 0 -265 138q-102 -138 -264 -138q-165 0 -267 136q-93 124 -93 295q0 342 225 538q-124 88 -124 252q0 152 104 240q99 83 253 83q308 0 495 -270q165 -240 165 -565q0 -32 -7 -62q63 -40 102 -126q35 -79 35 -160z
M808 -169q0 -43 -26.5 -73t-69.5 -30q-96 0 -96 103q0 44 31 110.5t65 90.5q33 -23 64.5 -91t31.5 -110zM1026 1031q-59 158 -183 262q-135 115 -294 115q-97 0 -159 -48q-67 -53 -67 -148q0 -58 35.5 -103t92.5 -49q126 60 263 60q176 0 312 -89zM1200 351q0 124 -72 175
q-55 -47 -124 -47q-57 0 -96 37t-39 93q0 47 35 88.5t82 41.5q59 0 92 -16q-1 124 -120 198q-102 63 -235 63q-222 0 -363 -158q-136 -153 -136 -382q0 -112 49 -188q57 -88 163 -88q92 0 152 64q57 63 57 156h136q0 -93 57 -156.5t150 -63.5q84 0 145 49q67 53 67 134z" />
    <glyph glyph-name="glyph294" 
d="M1336 479q0 -183 -79 -317q-94 -162 -264 -162q-104 0 -170.5 68t-66.5 172q0 94 61 154.5t155 60.5q74 0 129 -57q51 -53 65 -129q35 97 35 195q0 149 -52 259q-68 141 -201 141q-83 0 -141 -49q-62 -52 -62 -133h-136q0 81 -62 133q-58 49 -141 49q-76 0 -126 -37
q-56 -41 -56 -115q0 -64 43.5 -110.5t106.5 -46.5h52v-117h-52q-70 0 -110 -43.5t-40 -113.5q0 -58 36 -97t94 -39q59 0 97 34.5t38 92.5h136q0 -115 -78 -193.5t-193 -78.5t-190.5 78.5t-75.5 193.5q0 167 118 224q-118 66 -118 215q0 126 99 202q90 69 219 69
q181 0 271 -117q90 117 271 117q186 0 236 140q-49 -26 -106 -26q-93 0 -158.5 65.5t-65.5 158.5q0 94 66 159t160 65q115 0 181 -95q59 -84 59 -204q0 -220 -165 -322q181 -125 181 -444zM1202 1266q-12 156 -124 156q-42 0 -72 -30t-30 -72t30 -72t72 -30q80 0 124 48z
M1091 203q-25 135 -119 135q-37 0 -60 -31q-20 -27 -20 -66q0 -34 23.5 -65t56.5 -31q79 0 119 58z" />
    <glyph glyph-name="glyph295" 
d="M1336 448q0 -101 -49 -189q-143 -259 -575 -259q-231 0 -408 96q-216 118 -216 330q0 110 70 199t177 119q23 -45 59 -111q-70 -23 -116 -70q-55 -55 -55 -121q0 -147 176 -220q130 -54 302 -54q187 0 318 53q181 74 181 233q0 102 -69 185q-107 -166 -281 -166
q-90 0 -164 55q-81 60 -81 147q0 89 80 152q75 58 166 58q128 0 233 -50q19 81 19 172q0 240 -148 345q6 -28 6 -57q0 -103 -73 -176t-176 -73t-176 73t-73 176t73 176t176 73q238 0 379 -162q134 -154 134 -396q0 -116 -35 -221q146 -129 146 -317zM841 1327l-4 64
q-66 17 -125 17q-46 0 -79.5 -33.5t-33.5 -79.5t33.5 -79.5t79.5 -33.5q68 0 103 52q28 40 26 93zM1037 715q-81 43 -186 43q-35 0 -71 -26q-39 -28 -39 -62q0 -69 109 -69q119 0 187 114z" />
    <glyph glyph-name="glyph296" 
d="M1336 434q0 -173 -92 -297q-101 -137 -268 -137q-163 0 -264 138q-101 -138 -264 -138q-165 0 -267 136q-93 124 -93 295q0 290 177 483q-146 83 -146 250q0 157 118 270q116 110 274 110q216 0 419 -198q178 -174 295 -445q111 -258 111 -467zM808 -169q0 -43 -27 -73
t-69 -30q-44 0 -70 29.5t-26 73.5q0 45 30.5 110.5t65.5 90.5q33 -24 64.5 -91t31.5 -110zM1006 1037q-225 371 -491 371q-114 0 -185 -64q-75 -67 -75 -179q0 -60 31 -102q34 -46 92 -51q159 108 334 108q151 0 294 -83zM1200 444q0 213 -136 372q-143 168 -352 168
t-352 -168q-136 -159 -136 -372q0 -112 49 -187q57 -89 163 -89q92 0 150.5 63.5t58.5 156.5h136q0 -93 57.5 -156.5t149.5 -63.5q106 0 163 89q49 75 49 187zM808 712q0 -39 -28.5 -67.5t-67.5 -28.5t-67.5 28.5t-28.5 67.5t28.5 67.5t67.5 28.5t67.5 -28.5t28.5 -67.5z
" />
    <glyph glyph-name="glyph297" 
d="M1336 434q0 -173 -92 -297q-101 -137 -268 -137q-163 0 -264 138q-101 -138 -264 -138q-165 0 -267 136q-93 124 -93 295q0 290 177 483q-146 83 -146 250q0 157 118 270q116 110 274 110q216 0 419 -198q178 -174 295 -445q111 -258 111 -467zM1006 1037
q-225 371 -491 371q-114 0 -185 -64q-75 -67 -75 -179q0 -60 31 -102q34 -46 92 -51q159 108 334 108q151 0 294 -83zM1200 444q0 213 -136 372q-143 168 -352 168t-352 -168q-136 -159 -136 -372q0 -112 49 -187q57 -89 163 -89q92 0 150.5 63.5t58.5 156.5h136
q0 -93 57.5 -156.5t149.5 -63.5q106 0 163 89q49 75 49 187z" />
    <glyph glyph-name="glyph298" 
d="M1336 434q0 -173 -92 -297q-101 -137 -268 -137q-163 0 -264 138q-101 -138 -264 -138q-165 0 -267 136q-93 124 -93 295q0 290 177 483q-146 83 -146 250q0 157 118 270q116 110 274 110q216 0 419 -198q178 -174 295 -445q111 -258 111 -467zM808 -169q0 -43 -27 -73
t-69 -30q-44 0 -70 29.5t-26 73.5q0 45 30.5 110.5t65.5 90.5q33 -24 64.5 -91t31.5 -110zM1006 1037q-225 371 -491 371q-114 0 -185 -64q-75 -67 -75 -179q0 -60 31 -102q34 -46 92 -51q159 108 334 108q151 0 294 -83zM1200 444q0 213 -136 372q-143 168 -352 168
t-352 -168q-136 -159 -136 -372q0 -112 49 -187q57 -89 163 -89q92 0 150.5 63.5t58.5 156.5h136q0 -93 57.5 -156.5t149.5 -63.5q106 0 163 89q49 75 49 187z" />
    <glyph glyph-name="glyph299" 
d="M1340 510q0 -264 -92.5 -387t-268.5 -123q-71 0 -121.5 24t-89 67t-69 102t-60.5 128q-18 41 -40 77t-52 62.5t-68.5 42t-88.5 15.5q-42 0 -73.5 -18.5t-52.5 -47t-32 -64t-11 -69.5q0 -47 13 -86t32 -71t39 -57t35 -44l-119 -81q-33 31 -58 69.5t-42.5 81t-26.5 87.5
t-9 90q0 70 21 133t60.5 110t95.5 75t126 28q135 0 225.5 -65.5t149.5 -196.5q24 -53 47.5 -95t49 -70.5t54.5 -43.5t65 -15q76 0 120.5 28.5t66.5 77t28 112t6 133.5q0 109 -15 221.5t-43.5 211.5t-69 177.5t-91.5 120.5q-15 -34 -38 -62.5t-52 -48.5t-62.5 -31.5
t-67.5 -11.5q-47 0 -87.5 17.5t-71 48t-48 71t-17.5 87.5t18 88t48.5 71t71 47.5t86.5 17.5q72 0 142 -35t133 -96.5t116.5 -144.5t92.5 -179q32 -78 51 -158.5t28.5 -156t12.5 -143t3 -121.5zM885 1345q-39 35 -67.5 49t-58.5 14q-18 0 -34 -7t-28 -19t-19 -28t-7 -34
t7 -34t19 -28t28 -19t34 -7t38.5 10t38.5 26.5t31 36.5t18 40z" />
    <glyph glyph-name="glyph300" 
d="M1336 407q0 -84 -25.5 -158t-71.5 -129t-110 -87t-140 -33q-175 0 -277 138q-101 -138 -273 -138q-75 0 -139.5 29t-111.5 79.5t-73.5 118.5t-26.5 147q0 60 19 122t57.5 113t95.5 83t134 32q42 0 75 -8.5t57 -20.5t40.5 -25t26.5 -22l-88 -113q-6 5 -17.5 14t-26.5 17.5
t-32 14.5t-33 6q-39 0 -70.5 -17t-54 -45t-35 -63.5t-12.5 -72.5q0 -45 16.5 -85.5t44.5 -70.5t66 -47.5t81 -17.5q48 0 87 17t67 46.5t43.5 69.5t15.5 87h136q0 -46 15 -86t42.5 -70t65.5 -47t85 -17q47 1 86 21t66.5 54t43 79t15.5 96q0 224 -215 361l63 125
q75 -55 127.5 -107t84.5 -102q76 -119 76 -288zM1042 1212q0 -187 -115 -347q-128 -177 -305 -177v128q43 1 85.5 22.5t79 57t64 82t40.5 97.5q-56 -29 -117 -29q-51 0 -96.5 20t-79 53.5t-53.5 79t-20 96.5q0 52 20 97.5t54 79.5t79.5 53t97.5 19q59 0 108 -25t84 -69.5
t54.5 -105.5t19.5 -132zM910 1242q-18 166 -136 166q-22 0 -42.5 -9t-36 -24.5t-25 -36t-9.5 -43.5t9 -43.5t24.5 -36t36 -24.5t43.5 -9q86 0 136 60z" />
    <glyph glyph-name="glyph301" 
d="M1336 407q0 -84 -25.5 -158t-71.5 -129t-110 -87t-140 -33q-175 0 -277 138q-101 -138 -273 -138q-75 0 -139.5 29t-111.5 79.5t-73.5 118.5t-26.5 147q0 60 19 122t57.5 113t95.5 83t134 32q42 0 75 -8.5t57 -20.5t40.5 -25t26.5 -22l-88 -113q-6 5 -17.5 14t-26.5 17.5
t-32 14.5t-33 6q-39 0 -70.5 -17t-54 -45t-35 -63.5t-12.5 -72.5q0 -45 16.5 -85.5t44.5 -70.5t66 -47.5t81 -17.5q48 0 87 17t67 46.5t43.5 69.5t15.5 87h136q0 -46 15 -86t42.5 -70t65.5 -47t85 -17q47 1 86 21t66.5 54t43 79t15.5 96q0 224 -215 361l63 125
q75 -55 127.5 -107t84.5 -102q76 -119 76 -288zM1042 1212q0 -187 -115 -347q-128 -177 -305 -177v128q43 1 85.5 22.5t79 57t64 82t40.5 97.5q-56 -29 -117 -29q-51 0 -96.5 20t-79 53.5t-53.5 79t-20 96.5q0 52 20 97.5t54 79.5t79.5 53t97.5 19q59 0 108 -25t84 -69.5
t54.5 -105.5t19.5 -132zM910 1242q-18 166 -136 166q-22 0 -42.5 -9t-36 -24.5t-25 -36t-9.5 -43.5t9 -43.5t24.5 -36t36 -24.5t43.5 -9q86 0 136 60zM808 -169q0 -43 -27 -73t-69 -30q-45 0 -70.5 29t-25.5 74q0 21 8.5 50.5t22 58.5t31 54t34.5 38q15 -11 32 -36.5
t31.5 -55.5t23.5 -59.5t9 -49.5z" />
    <glyph glyph-name="glyph302" horiz-adv-x="1840" 
d="M1336 407q0 -84 -25.5 -158t-71.5 -129t-110 -87t-140 -33q-175 0 -277 138q-101 -138 -273 -138q-75 0 -139.5 29t-111.5 79.5t-73.5 118.5t-26.5 147q0 60 19 122t57.5 113t95.5 83t134 32q42 0 75 -8.5t57 -20.5t40.5 -25t26.5 -22l-88 -113q-6 5 -17.5 14t-26.5 17.5
t-32 14.5t-33 6q-39 0 -70.5 -17t-54 -45t-35 -63.5t-12.5 -72.5q0 -45 16.5 -85.5t44.5 -70.5t66 -47.5t81 -17.5q48 0 87 17t67 46.5t43.5 69.5t15.5 87h136q0 -46 15 -86t42.5 -70t65.5 -47t85 -17q47 1 86 21t66.5 54t43 79t15.5 96q0 224 -215 361l63 125
q75 -55 127.5 -107t84.5 -102q76 -119 76 -288zM1341 1265q0 -60 -19.5 -111t-54 -89t-81 -59.5t-101.5 -21.5h-997v136h997q25 0 47 12t38.5 32.5t25.5 46.5t9 54q0 27 -8.5 52t-23 44.5t-34 32t-42.5 14.5l11 136q49 -5 91.5 -29.5t74 -62t49.5 -85.5t18 -102zM848 712
q0 -40 -28 -68t-68 -28t-68 28t-28 68t28 68t68 28t68 -28t28 -68zM808 -169q0 -43 -26.5 -73t-69.5 -30q-96 0 -96 103q0 20 8.5 49.5t22.5 59.5t31 55t34 37q15 -11 32 -36.5t31.5 -55.5t23.5 -60t9 -49zM1752 386q0 -282 -131 -459q-147 -199 -419 -199
q-215 0 -369.5 151t-154.5 366h120q0 -152 127 -267q124 -111 278 -111q214 0 321 158q91 136 91 360q0 259 -141 557l131 42q147 -374 147 -598z" />
    <glyph glyph-name="glyph303" horiz-adv-x="2530" 
d="M1336 407q0 -84 -25.5 -158t-71.5 -129t-110 -87t-140 -33q-175 0 -277 138q-101 -138 -273 -138q-75 0 -139.5 29t-111.5 79.5t-73.5 118.5t-26.5 147q0 60 19 122t57.5 113t95.5 83t134 32q42 0 75 -8.5t57 -20.5t40.5 -25t26.5 -22l-88 -113q-6 5 -17.5 14t-26.5 17.5
t-32 14.5t-33 6q-39 0 -70.5 -17t-54 -45t-35 -63.5t-12.5 -72.5q0 -45 16.5 -85.5t44.5 -70.5t66 -47.5t81 -17.5q48 0 87 17t67 46.5t43.5 69.5t15.5 87h136q0 -46 15 -86t42.5 -70t65.5 -47t85 -17q47 1 86 21t66.5 54t43 79t15.5 96q0 224 -215 361l63 125
q75 -55 127.5 -107t84.5 -102q76 -119 76 -288zM1341 1265q0 -60 -19.5 -111t-54 -89t-81 -59.5t-101.5 -21.5h-997v136h997q25 0 47 12t38.5 32.5t25.5 46.5t9 54q0 27 -8.5 52t-23 44.5t-34 32t-42.5 14.5l11 136q49 -5 91.5 -29.5t74 -62t49.5 -85.5t18 -102zM848 712
q0 -40 -28 -68t-68 -28t-68 28t-28 68t28 68t68 28t68 -28t28 -68zM808 -169q0 -43 -26.5 -73t-69.5 -30q-96 0 -96 103q0 20 8.5 49.5t22.5 59.5t31 55t34 37q15 -11 32 -36.5t31.5 -55.5t23.5 -60t9 -49zM2442 576q0 -128 -26.5 -234t-75.5 -182t-119 -118t-158 -42
q-56 0 -107.5 22.5t-91 60.5t-63 88.5t-23.5 106.5q0 47 15 97t45.5 91t78.5 67.5t114 26.5q30 0 56.5 -11.5t46.5 -31.5t31.5 -47t11.5 -57t-11.5 -56.5t-31.5 -46.5t-46.5 -31.5t-56.5 -11.5q-33 0 -61.5 12.5t-48.5 35.5q-5 -22 -5 -41q0 -27 13 -51.5t34 -43t47 -29.5
t53 -11q60 0 106 29t78 84.5t48.5 134.5t16.5 180q0 85 -24 160.5t-66.5 132.5t-101 90.5t-127.5 33.5q-211 0 -296 -274q-9 -29 -27 -129.5t-47 -276.5q-24 -148 -62.5 -252t-97 -170t-139 -96t-187.5 -30q-93 0 -175.5 38.5t-145 105t-101 155.5t-43.5 190h120
q0 -70 27.5 -133t75 -110.5t110 -75.5t132.5 -28q82 0 144 27t107 88.5t75 161.5t50 247q19 143 34.5 229t26.5 118q25 73 62.5 137t89.5 111.5t118.5 75t149.5 27.5q97 0 179 -43t142 -116.5t93.5 -173t33.5 -211.5z" />
    <glyph glyph-name="glyph304" horiz-adv-x="2530" 
d="M1336 407q0 -84 -25.5 -158t-71.5 -129t-110 -87t-140 -33q-175 0 -277 138q-101 -138 -273 -138q-75 0 -139.5 29t-111.5 79.5t-73.5 118.5t-26.5 147q0 60 19 122t57.5 113t95.5 83t134 32q42 0 75 -8.5t57 -20.5t40.5 -25t26.5 -22l-88 -113q-6 5 -17.5 14t-26.5 17.5
t-32 14.5t-33 6q-39 0 -70.5 -17t-54 -45t-35 -63.5t-12.5 -72.5q0 -45 16.5 -85.5t44.5 -70.5t66 -47.5t81 -17.5q48 0 87 17t67 46.5t43.5 69.5t15.5 87h136q0 -46 15 -86t42.5 -70t65.5 -47t85 -17q47 1 86 21t66.5 54t43 79t15.5 96q0 224 -215 361l63 125
q75 -55 127.5 -107t84.5 -102q76 -119 76 -288zM848 712q0 -40 -28 -68t-68 -28t-68 28t-28 68t28 68t68 28t68 -28t28 -68zM1136 984h-1048v136h1048v-136zM808 -169q0 -43 -26.5 -73t-69.5 -30q-96 0 -96 103q0 20 8.5 49.5t22.5 59.5t31 55t34 37q15 -11 32 -36.5
t31.5 -55.5t23.5 -60t9 -49zM2442 576q0 -128 -26.5 -234t-75.5 -182t-119 -118t-158 -42q-56 0 -107.5 22.5t-91 60.5t-63 88.5t-23.5 106.5q0 47 15 97t45.5 91t78.5 67.5t114 26.5q30 0 56.5 -11.5t46.5 -31.5t31.5 -47t11.5 -57t-11.5 -56.5t-31.5 -46.5t-46.5 -31.5
t-56.5 -11.5q-33 0 -61.5 12.5t-48.5 35.5q-5 -22 -5 -41q0 -27 13 -51.5t34 -43t47 -29.5t53 -11q60 0 106 29t78 84.5t48.5 134.5t16.5 180q0 85 -24 160.5t-66.5 132.5t-101 90.5t-127.5 33.5q-211 0 -296 -274q-9 -29 -27 -129.5t-47 -276.5q-24 -148 -62.5 -252
t-97 -170t-139 -96t-187.5 -30q-93 0 -175.5 38.5t-145 105t-101 155.5t-43.5 190h120q0 -70 27.5 -133t75 -110.5t110 -75.5t132.5 -28q82 0 144 27t107 88.5t75 161.5t50 247q19 143 34.5 229t26.5 118q25 73 62.5 137t89.5 111.5t118.5 75t149.5 27.5q97 0 179 -43
t142 -116.5t93.5 -173t33.5 -211.5zM1410 1268q0 -60 -21.5 -112t-59 -90.5t-89 -60t-111.5 -21.5h-157v136h157q32 0 60 13.5t48.5 35.5t32.5 51t12 60q0 35 -19 70t-61 54q6 -14 11.5 -25.5t5.5 -35.5q0 -42 -14 -68t-33.5 -39.5t-40 -18t-34.5 -4.5q-29 0 -52.5 12
t-40.5 32t-26.5 47.5t-9.5 57.5q0 41 14.5 74.5t40 57.5t60 37t73.5 13q56 0 102.5 -22.5t80.5 -60t52.5 -88t18.5 -105.5z" />
    <glyph glyph-name="glyph305" horiz-adv-x="1444" 
d="M1356 562q0 -118 -26 -220.5t-73.5 -178t-115 -119t-150.5 -44.5q-88 0 -158 34.5t-121 103.5q-101 -138 -273 -138q-76 0 -140.5 27.5t-111 76.5t-73 116t-26.5 145q0 53 9 96.5t30.5 79.5t56 66t85.5 56q54 28 85 56t47 54.5t20.5 49.5t4.5 41q0 63 -36 101.5t-99 38.5
q-26 0 -49.5 -8.5t-40.5 -23.5t-27 -36t-10 -46q0 -46 20 -68l-116 -68q-40 52 -40 140q0 52 21 97t57 78t84 52t103 19q61 0 111 -21t85 -59t54 -90t19 -113q0 -72 -21.5 -121t-56 -84t-76.5 -60t-83 -49q-12 -7 -29.5 -20t-33 -33t-27 -47t-11.5 -62q0 -45 16 -83.5
t44 -67.5t66 -45.5t82 -16.5q48 0 87 17t67 46.5t43.5 69.5t15.5 87h136q0 -45 14 -84t40 -68.5t62.5 -47.5t81.5 -20q54 1 98.5 29.5t76 80.5t49 125t17.5 163q0 110 -18 215t-48.5 195.5t-70 161t-82.5 112.5q-15 -34 -38 -62.5t-52 -48.5t-62.5 -31.5t-67.5 -11.5
q-47 0 -87.5 17.5t-71 48t-48 71t-17.5 87.5t18 88t48.5 71t71 47.5t86.5 17.5q72 0 142 -35t133 -96.5t116.5 -144.5t92.5 -179q28 -68 45.5 -143t27.5 -146t14 -133t4 -105zM905 1345q-39 35 -67.5 49t-58.5 14q-18 0 -34 -7t-28 -19t-19 -28t-7 -34t7 -34t19 -28t28 -19
t34 -7t38.5 10t38.5 26.5t31 36.5t18 40z" />
    <glyph glyph-name="glyph306" horiz-adv-x="1444" 
d="M1356 562q0 -118 -26 -220.5t-73.5 -178t-115 -119t-150.5 -44.5q-88 0 -158 34.5t-121 103.5q-101 -138 -273 -138q-76 0 -140.5 27.5t-111 76.5t-73 116t-26.5 145q0 53 9 96.5t30.5 79.5t56 66t85.5 56q54 28 85 56t47 54.5t20.5 49.5t4.5 41q0 63 -36 101.5t-99 38.5
q-26 0 -49.5 -8.5t-40.5 -23.5t-27 -36t-10 -46q0 -46 20 -68l-116 -68q-40 52 -40 140q0 52 21 97t57 78t84 52t103 19q61 0 111 -21t85 -59t54 -90t19 -113q0 -72 -21.5 -121t-56 -84t-76.5 -60t-83 -49q-12 -7 -29.5 -20t-33 -33t-27 -47t-11.5 -62q0 -45 16 -83.5
t44 -67.5t66 -45.5t82 -16.5q48 0 87 17t67 46.5t43.5 69.5t15.5 87h136q0 -45 14 -84t40 -68.5t62.5 -47.5t81.5 -20q54 1 98.5 29.5t76 80.5t49 125t17.5 163q0 110 -18 215t-48.5 195.5t-70 161t-82.5 112.5q-15 -34 -38 -62.5t-52 -48.5t-62.5 -31.5t-67.5 -11.5
q-47 0 -87.5 17.5t-71 48t-48 71t-17.5 87.5t18 88t48.5 71t71 47.5t86.5 17.5q72 0 142 -35t133 -96.5t116.5 -144.5t92.5 -179q28 -68 45.5 -143t27.5 -146t14 -133t4 -105zM905 1345q-39 35 -67.5 49t-58.5 14q-18 0 -34 -7t-28 -19t-19 -28t-7 -34t7 -34t19 -28t28 -19
t34 -7t38.5 10t38.5 26.5t31 36.5t18 40zM808 -169q0 -43 -26.5 -73t-69.5 -30q-96 0 -96 103q0 21 9 51t22.5 59.5t30.5 54.5t34 36q15 -11 32 -36t31 -55t23.5 -59.5t9.5 -50.5z" />
    <glyph glyph-name="glyph307" horiz-adv-x="2048" 
d="M1960 471q0 -113 -28 -200.5t-79 -147.5t-122.5 -91.5t-158.5 -31.5q-196 0 -306 158q-96 -158 -280 -158q-173 1 -274 138q-101 -138 -273 -138q-75 0 -139.5 29t-111.5 79.5t-73.5 118.5t-26.5 147q0 60 19 122t57.5 113t95.5 83t134 32q42 0 75 -8.5t57 -20.5
t40.5 -25t26.5 -22l-88 -113q-6 5 -17.5 14t-26.5 17.5t-32 14.5t-33 6q-39 0 -70.5 -17t-54 -45t-35 -63.5t-12.5 -72.5q0 -45 16.5 -85.5t44.5 -70.5t66 -47.5t81 -17.5q48 0 87 17t67 46.5t43.5 69.5t15.5 87h136q0 -46 15 -86t42.5 -70t65.5 -47t85 -17q45 0 78 18
t56.5 49t38.5 71t23.5 84.5t11.5 89.5t3 86q0 110 -18 215t-48.5 195.5t-70 161t-82.5 112.5q-15 -34 -38 -62.5t-52 -48.5t-62.5 -31.5t-67.5 -11.5q-47 0 -87.5 17.5t-71 48t-48 71t-17.5 87.5t18 88t48.5 71t71 47.5t86.5 17.5q72 0 142 -35t133 -96.5t116.5 -144.5
t92.5 -179q28 -68 46 -143t29 -146t15.5 -133t4.5 -105q0 -29 -1 -60t-2 -58t-2 -46.5t-1 -25.5q0 -40 19.5 -76.5t52.5 -65t76.5 -45.5t91.5 -17q57 0 103 22.5t78.5 62.5t50.5 94.5t18 119.5q0 93 -22.5 179.5t-63.5 161.5t-99 135t-130 98l97 98q89 -50 155.5 -121.5
t110.5 -158.5t66 -185.5t22 -202.5zM885 1345q-39 35 -67.5 49t-58.5 14q-18 0 -34 -7t-28 -19t-19 -28t-7 -34t7 -34t19 -28t28 -19t34 -7t38.5 10t38.5 26.5t31 36.5t18 40z" />
    <glyph glyph-name="glyph308" horiz-adv-x="2048" 
d="M1960 471q0 -113 -28 -200.5t-79 -147.5t-122.5 -91.5t-158.5 -31.5q-196 0 -306 158q-96 -158 -280 -158q-173 1 -274 138q-101 -138 -273 -138q-75 0 -139.5 29t-111.5 79.5t-73.5 118.5t-26.5 147q0 60 19 122t57.5 113t95.5 83t134 32q42 0 75 -8.5t57 -20.5
t40.5 -25t26.5 -22l-88 -113q-6 5 -17.5 14t-26.5 17.5t-32 14.5t-33 6q-39 0 -70.5 -17t-54 -45t-35 -63.5t-12.5 -72.5q0 -45 16.5 -85.5t44.5 -70.5t66 -47.5t81 -17.5q48 0 87 17t67 46.5t43.5 69.5t15.5 87h136q0 -46 15 -86t42.5 -70t65.5 -47t85 -17q48 1 87 22
t66.5 57.5t42.5 87t15 109.5q0 97 -34.5 181.5t-92.5 153t-134 120.5t-160 85h-691v136h1061q32 0 60 13.5t48.5 35.5t32.5 51t12 60q0 35 -19 70t-61 54q6 -14 11.5 -25.5t5.5 -35.5q0 -42 -14 -68t-33.5 -39.5t-40 -18t-34.5 -4.5q-29 0 -52.5 12t-40.5 32t-26.5 47.5
t-9.5 57.5q0 41 14.5 74.5t40 57.5t60 37t73.5 13q56 0 102.5 -22.5t80.5 -60t52.5 -88t18.5 -105.5q0 -60 -21.5 -112t-59 -90.5t-89 -60t-111.5 -21.5h-118q69 -42 125 -104.5t96 -136t62 -151.5t22 -151q0 -26 -1 -38.5t-1 -30.5q0 -40 19.5 -76.5t52.5 -65t76.5 -45.5
t91.5 -17q57 0 103 22.5t78.5 62.5t50.5 94.5t18 119.5q0 93 -22.5 179.5t-63.5 161.5t-99 135t-130 98l97 98q89 -50 155.5 -121.5t110.5 -158.5t66 -185.5t22 -202.5z" />
    <glyph glyph-name="glyph309" horiz-adv-x="2538" 
d="M1960 471q0 -113 -28 -200.5t-79 -147.5t-122.5 -91.5t-158.5 -31.5q-196 0 -306 158q-96 -158 -280 -158q-173 1 -274 138q-101 -138 -273 -138q-75 0 -139.5 29t-111.5 79.5t-73.5 118.5t-26.5 147q0 60 19 122t57.5 113t95.5 83t134 32q42 0 75 -8.5t57 -20.5
t40.5 -25t26.5 -22l-88 -113q-6 5 -17.5 14t-26.5 17.5t-32 14.5t-33 6q-39 0 -70.5 -17t-54 -45t-35 -63.5t-12.5 -72.5q0 -45 16.5 -85.5t44.5 -70.5t66 -47.5t81 -17.5q48 0 87 17t67 46.5t43.5 69.5t15.5 87h136q0 -46 15 -86t42.5 -70t65.5 -47t85 -17q48 1 87 22
t66.5 57.5t42.5 87t15 109.5q0 97 -34.5 181.5t-92.5 153t-134 120.5t-160 85h-691v136h1061q32 0 60 13.5t48.5 35.5t32.5 51t12 60q0 35 -19 70t-61 54q6 -14 11.5 -25.5t5.5 -35.5q0 -42 -14 -68t-33.5 -39.5t-40 -18t-34.5 -4.5q-29 0 -52.5 12t-40.5 32t-26.5 47.5
t-9.5 57.5q0 41 14.5 74.5t40 57.5t60 37t73.5 13q56 0 102.5 -22.5t80.5 -60t52.5 -88t18.5 -105.5q0 -60 -21.5 -112t-59 -90.5t-89 -60t-111.5 -21.5h-118q69 -42 125 -104.5t96 -136t62 -151.5t22 -151q0 -26 -1 -38.5t-1 -30.5q0 -40 19.5 -76.5t52.5 -65t76.5 -45.5
t91.5 -17q57 0 103 22.5t78.5 62.5t50.5 94.5t18 119.5q0 93 -22.5 179.5t-63.5 161.5t-99 135t-130 98l97 98q89 -50 155.5 -121.5t110.5 -158.5t66 -185.5t22 -202.5zM2506 -303q0 -81 -21.5 -161t-66 -143.5t-113 -103.5t-161.5 -40q-56 0 -111.5 22.5t-99 68.5
t-70.5 117t-27 169q0 43 13 81.5t37.5 67t60 45.5t79.5 17q45 0 80.5 -17t59.5 -45.5t37 -67t13 -81.5q0 -45 -16 -79.5t-41 -58t-55.5 -35.5t-59.5 -12q-16 0 -29 1t-27 6q40 -87 154 -87q71 0 119 31.5t77.5 80.5t42.5 109t13 117q0 75 -25 140t-70.5 113t-108.5 76
t-138 28v112q39 0 69 15.5t50.5 44t31 68t10.5 87.5q0 85 -33 156l105 34q40 -110 40 -208q0 -154 -104 -240q64 -22 117 -64.5t90 -99t57.5 -124.5t20.5 -140zM2108 -364q0 32 -21.5 57.5t-60.5 25.5q-38 0 -60 -25.5t-22 -57.5q0 -30 4.5 -46t12.5 -32q10 -9 25 -11t26 -2
q47 0 71.5 26.5t24.5 64.5z" />
    <glyph glyph-name="glyph310" horiz-adv-x="2258" 
d="M2179 471q0 -113 -28 -200.5t-79 -147.5t-122.5 -91.5t-158.5 -31.5q-196 0 -306 158q-53 -90 -136.5 -128t-184.5 -30q-198 0 -315 201q-119 -201 -330 -201q-177 0 -304 174q-127 173 -127 402q0 111 34 210t92.5 173t137 117.5t167.5 43.5t167.5 -43.5t137 -117.5
t92.5 -173t34 -210q0 -120 -22 -195q0 -45 19.5 -84t52.5 -67.5t76 -45t90 -16.5q81 0 130.5 37t76.5 95t36.5 128.5t9.5 137.5q0 110 -18 215t-48.5 195.5t-70 161t-82.5 112.5q-15 -34 -38 -62.5t-52 -48.5t-62.5 -31.5t-67.5 -11.5q-47 0 -87.5 17.5t-71 48t-48 71
t-17.5 87.5t18 88t48.5 71t71 47.5t86.5 17.5q72 0 142 -35t133 -96.5t116.5 -144.5t92.5 -179q28 -68 46 -143t29 -146t15.5 -133t4.5 -105q0 -29 -1 -60t-2 -58t-2 -46.5t-1 -25.5q0 -40 19.5 -76.5t52.5 -65t76.5 -45.5t91.5 -17q57 0 103 22.5t78.5 62.5t50.5 94.5
t18 119.5q0 93 -22.5 179.5t-63.5 161.5t-99 135t-130 98l97 98q89 -50 155.5 -121.5t110.5 -158.5t66 -185.5t22 -202.5zM814 576q0 85 -22 159.5t-61 129.5t-92 87t-115 32t-117 -31.5t-95.5 -87t-64 -130t-23.5 -159.5q0 -86 23.5 -160t64 -129.5t95.5 -87t117 -31.5
q63 0 116 32t92 87.5t60.5 130t21.5 158.5zM1104 1345q-39 35 -67.5 49t-58.5 14q-18 0 -34 -7t-28 -19t-19 -28t-7 -34t7 -34t19 -28t28 -19t34 -7t38.5 10t38.5 26.5t31 36.5t18 40z" />
    <glyph glyph-name="glyph311" horiz-adv-x="2258" 
d="M2170 471q0 -101 -28 -187.5t-79 -149.5t-122.5 -98.5t-158.5 -35.5q-202 0 -312 167q-111 -167 -306 -167q-200 0 -315 201q-117 -201 -330 -201q-68 0 -126 25.5t-106 69t-85 101t-62.5 121.5t-38.5 130.5t-13 128.5q0 63 13 127.5t38.5 125t62.5 113.5t85 92.5
t106 62.5t126 23q66 0 124 -23t107 -62.5t87.5 -92.5t64.5 -113.5t38.5 -125t9.5 -127.5q-1 -14 -4.5 -43t-7.5 -60t-7 -57.5t-3 -34.5q0 -45 19.5 -83.5t52 -67.5t75.5 -45.5t91 -16.5q57 0 103 22t79 62t50.5 95t17.5 120q0 147 -55.5 279t-168.5 238h-178v136h261
q32 0 60 13.5t48.5 35.5t32.5 51t12 60q0 35 -19 70t-61 54q6 -14 11.5 -25.5t5.5 -35.5q0 -42 -14 -68t-33.5 -39.5t-40 -18t-34.5 -4.5q-29 0 -52.5 12t-40.5 32t-26.5 47.5t-9.5 57.5q0 41 14.5 74.5t40 57.5t60 37t73.5 13q56 0 102.5 -22.5t80.5 -60t52.5 -88
t18.5 -105.5q0 -47 -13 -89.5t-37 -77t-57.5 -60.5t-74.5 -41q90 -108 134 -244t44 -285q0 -7 -1 -21t-2.5 -30t-2.5 -30t-1 -21q0 -40 20.5 -76.5t54.5 -64t76.5 -44t87.5 -16.5q57 0 103 22.5t78.5 62.5t50.5 94.5t18 119.5q0 88 -16 167.5t-51 149t-90 129.5t-132 108
l80 119q78 -41 142 -107.5t109 -153t69.5 -190t24.5 -218.5zM814 576q0 82 -21.5 156t-59.5 130t-91.5 89t-117.5 33q-65 0 -119.5 -33t-95 -89.5t-63 -130.5t-22.5 -155t22.5 -155t63 -130.5t95 -89.5t119.5 -33q64 0 117.5 33t91.5 89t59.5 130t21.5 156z" />
    <glyph glyph-name="glyph312" horiz-adv-x="2748" 
d="M2170 471q0 -101 -28 -187.5t-79 -149.5t-122.5 -98.5t-158.5 -35.5q-202 0 -312 167q-111 -167 -306 -167q-200 0 -315 201q-117 -201 -330 -201q-68 0 -126 25.5t-106 69t-85 101t-62.5 121.5t-38.5 130.5t-13 128.5q0 63 13 127.5t38.5 125t62.5 113.5t85 92.5
t106 62.5t126 23q66 0 124 -23t107 -62.5t87.5 -92.5t64.5 -113.5t38.5 -125t9.5 -127.5q-1 -14 -4.5 -43t-7.5 -60t-7 -57.5t-3 -34.5q0 -45 19.5 -83.5t52 -67.5t75.5 -45.5t91 -16.5q57 0 103 22t79 62t50.5 95t17.5 120q0 147 -55.5 279t-168.5 238h-178v136h261
q32 0 60 13.5t48.5 35.5t32.5 51t12 60q0 35 -19 70t-61 54q6 -14 11.5 -25.5t5.5 -35.5q0 -42 -14 -68t-33.5 -39.5t-40 -18t-34.5 -4.5q-29 0 -52.5 12t-40.5 32t-26.5 47.5t-9.5 57.5q0 41 14.5 74.5t40 57.5t60 37t73.5 13q56 0 102.5 -22.5t80.5 -60t52.5 -88
t18.5 -105.5q0 -47 -13 -89.5t-37 -77t-57.5 -60.5t-74.5 -41q90 -108 134 -244t44 -285q0 -7 -1 -21t-2.5 -30t-2.5 -30t-1 -21q0 -40 20.5 -76.5t54.5 -64t76.5 -44t87.5 -16.5q57 0 103 22.5t78.5 62.5t50.5 94.5t18 119.5q0 88 -16 167.5t-51 149t-90 129.5t-132 108
l80 119q78 -41 142 -107.5t109 -153t69.5 -190t24.5 -218.5zM814 576q0 82 -21.5 156t-59.5 130t-91.5 89t-117.5 33q-65 0 -119.5 -33t-95 -89.5t-63 -130.5t-22.5 -155t22.5 -155t63 -130.5t95 -89.5t119.5 -33q64 0 117.5 33t91.5 89t59.5 130t21.5 156zM2716 -303
q0 -81 -21.5 -161t-66 -143.5t-113 -103.5t-161.5 -40q-56 0 -111.5 22.5t-99 68.5t-70.5 117t-27 169q0 43 13 81.5t37.5 67t60 45.5t79.5 17q45 0 80.5 -17t59.5 -45.5t37 -67t13 -81.5q0 -45 -16 -79.5t-41 -58t-55.5 -35.5t-59.5 -12q-16 0 -29 1t-27 6q40 -87 154 -87
q71 0 119 31.5t77.5 80.5t42.5 109t13 117q0 75 -25 140t-70.5 113t-108.5 76t-138 28v112q39 0 69 15.5t50.5 44t31 68t10.5 87.5q0 85 -33 156l105 34q40 -110 40 -208q0 -154 -104 -240q64 -22 117 -64.5t90 -99t57.5 -124.5t20.5 -140zM2318 -364q0 32 -21.5 57.5
t-60.5 25.5q-38 0 -60 -25.5t-22 -57.5q0 -30 4.5 -46t12.5 -32q10 -9 25 -11t26 -2q47 0 71.5 26.5t24.5 64.5z" />
    <glyph glyph-name="glyph313" horiz-adv-x="1288" 
d="M1200 560q0 -231 -162.5 -395.5t-393.5 -164.5t-393.5 164.5t-162.5 395.5q0 262 200 430q-123 88 -123 251q0 145 106 227q97 76 246 76q323 0 518 -345q165 -289 165 -639zM975 1010q-157 398 -454 398q-91 0 -152 -42q-70 -47 -70 -134q0 -62 39 -107t99 -45
q99 40 207 40q184 0 331 -110zM1052 576q0 169 -119.5 288.5t-288.5 119.5t-288.5 -119.5t-119.5 -288.5t119.5 -288.5t288.5 -119.5t288.5 119.5t119.5 288.5z" />
    <glyph glyph-name="glyph314" 
d="M1336 653q0 -282 -142 -455q-163 -198 -482 -198q-255 0 -429 149q-195 167 -195 457q0 207 88 370.5t206 163.5q90 0 154 -72.5t64 -175.5t-64 -175.5t-154 -72.5q-91 0 -147 64q-11 -50 -11 -109q0 -203 153 -323q137 -108 335 -108q251 0 377 142q111 125 111 338
q0 310 -196 578q-60 -130 -203 -130q-93 0 -158.5 65.5t-65.5 158.5t65.5 158.5t158.5 65.5t159 -66q376 -378 376 -825zM920 1326q-61 82 -121 82q-36 0 -62 -26t-26 -62t26 -62t62 -26q38 0 75 27t46 67zM463 892q0 46 -23.5 79t-57.5 33t-69 -40.5t-49 -100.5
q40 -83 118 -83q34 0 57.5 33t23.5 79z" />
    <glyph glyph-name="glyph315" horiz-adv-x="1340" 
d="M1252 931q0 -152 -76 -272q-82 -132 -241 -201q74 -65 74 -170q0 -112 -79 -196q-85 -92 -218 -92t-218 92q-79 84 -79 196q0 105 74 170q-402 142 -401 459q0 93 65 158t159 65q93 0 158.5 -65.5t65.5 -158.5q0 -82 -54 -146.5t-132 -73.5q123 -101 362 -136
q208 20 313 133q91 98 91 246q0 205 -152 355q-10 -84 -73.5 -141t-149.5 -57q-93 0 -158.5 65.5t-65.5 158.5t65.5 158.5t158.5 65.5q201 0 362 -211q149 -197 149 -402zM853 1326q-43 82 -121 82q-36 0 -62 -26t-26 -62t26 -62t62 -26q88 0 121 94zM400 916q0 36 -26 62
t-62 26q-37 0 -68 -26t-31 -62q0 -74 46 -133q141 17 141 133zM873 289q0 53 -43 92q-46 43 -118 43t-118 -43q-43 -39 -43 -92q0 -50 40 -84q44 -37 121 -37t121 37q40 34 40 84z" />
    <glyph glyph-name="glyph316" horiz-adv-x="1444" 
d="M1340 562q0 -61 -6 -126t-21 -127.5t-40.5 -118t-64.5 -98t-94 -67t-128 -25.5q-173 1 -274 138q-101 -138 -273 -138q-75 0 -139.5 29t-111.5 79.5t-73.5 118.5t-26.5 147q0 60 19 122t57.5 113t95.5 83t134 32q42 0 75 -8.5t57 -20.5t40.5 -25t26.5 -22l-88 -113
q-6 5 -17.5 14t-26.5 17.5t-32 14.5t-33 6q-39 0 -70.5 -17t-54 -45t-35 -63.5t-12.5 -72.5q0 -45 16.5 -85.5t44.5 -70.5t66 -47.5t81 -17.5q48 0 87 17t67 46.5t43.5 69.5t15.5 87h136q0 -46 15 -86t42.5 -70t65.5 -47t85 -17q45 0 78 18t56.5 49t38.5 71t23.5 84.5
t11.5 89.5t3 86q0 110 -18 215t-48.5 195.5t-70 161t-82.5 112.5q-15 -34 -38 -62.5t-52 -48.5t-62.5 -31.5t-67.5 -11.5q-47 0 -87.5 17.5t-71 48t-48 71t-17.5 87.5t18 88t48.5 71t71 47.5t86.5 17.5q72 0 142 -35t133 -96.5t116.5 -144.5t92.5 -179q28 -68 46 -143
t29 -146t15.5 -133t4.5 -105zM885 1345q-39 35 -67.5 49t-58.5 14q-18 0 -34 -7t-28 -19t-19 -28t-7 -34t7 -34t19 -28t28 -19t34 -7t38.5 10t38.5 26.5t31 36.5t18 40z" />
    <glyph glyph-name="glyph317" horiz-adv-x="1224" 
d="M1142 461q0 -101 -43 -185.5t-117.5 -146t-175 -95.5t-214.5 -34q-87 0 -160 21.5t-125.5 60.5t-81.5 94t-29 123q0 36 16 68t41.5 60t58 53.5t66.5 48.5t66.5 44.5t56.5 43.5q128 100 178 215q-42 13 -76.5 25t-75.5 16q2 -8 2.5 -15t0.5 -15q0 -32 -12.5 -60t-33.5 -49
t-49.5 -33.5t-60.5 -12.5t-60 12.5t-49 33.5t-33.5 49t-12.5 60t12.5 60.5t33.5 50t49 34t60 12.5q58 0 109 -6t93 -14.5t75.5 -18.5t58.5 -18q2 18 4 38t2 39q0 108 -72 219q-12 -32 -33.5 -58.5t-48.5 -45t-59.5 -29t-67.5 -10.5q-47 0 -87.5 17.5t-71 48t-48 71
t-17.5 87.5t18 88t48.5 71t71 47.5t86.5 17.5q151 0 277 -182q60 -87 91.5 -174t31.5 -177q0 -57 -9 -106q69 -30 127 -75.5t100 -102.5t65.5 -124.5t23.5 -141.5zM1006 472q0 102 -53 180.5t-163 135.5q-26 -58 -70.5 -112t-105.5 -106q-45 -35 -94.5 -71t-91.5 -72
t-69 -70t-27 -64q0 -32 18.5 -58t52.5 -44.5t80.5 -28.5t103.5 -10q88 0 164.5 23t133 65t89 101t32.5 131zM558 1334q-54 74 -130 74q-18 0 -34 -7t-28 -19t-19 -28t-7 -34t7 -34t19 -28t28 -19t34 -7q103 0 130 102z" />
    <glyph glyph-name="glyph318" 
d="M1264 -6l-69 82q-43 -35 -94.5 -55t-111.5 -21q-175 0 -277 138q-101 -138 -273 -138q-75 0 -139.5 29t-111.5 79.5t-73.5 118.5t-26.5 147q0 60 19 122t57.5 113t95.5 83t134 32q42 0 75 -8.5t57 -20.5t40.5 -25t26.5 -22l-88 -113q-6 5 -17.5 14t-26.5 17.5t-32 14.5
t-33 6q-39 0 -70.5 -17t-54 -45t-35 -63.5t-12.5 -72.5q0 -45 16.5 -85.5t44.5 -70.5t66 -47.5t81 -17.5q48 0 87 17t67 46.5t43.5 69.5t15.5 87h136q0 -46 15 -86t42.5 -70t65.5 -47t85 -17q29 0 54.5 8.5t48.5 22.5l-266 318l94 83l254 -304q26 55 26 122q0 224 -215 361
l63 125q75 -55 127.5 -107t84.5 -102q76 -119 76 -288q0 -66 -15.5 -124t-44.5 -108l83 -98zM1062 1212q0 -187 -115 -347q-128 -177 -305 -177v128q43 1 85.5 22.5t79 57t64 82t40.5 97.5q-56 -29 -117 -29q-51 0 -96.5 20t-79 53.5t-53.5 79t-20 96.5q0 52 20 97t54 79
t80 53.5t97 19.5q59 0 108 -25t84 -69.5t54.5 -105.5t19.5 -132zM920 1242q-2 32 -12 62t-26.5 53t-39 37t-48.5 14q-22 0 -42.5 -9t-36 -24.5t-25 -36t-9.5 -43.5t9 -43.5t24.5 -36t36 -24.5t43.5 -9q82 0 126 60z" />
    <glyph glyph-name="glyph319" 
d="M972 1212q0 -98 -34 -184.5t-92 -151t-134 -101.5t-160 -37v128q218 0 269 209q-55 -29 -117 -29q-51 0 -96.5 20t-79 53.5t-53.5 79t-20 96.5q0 52 20 97t54 79t80 53.5t97 19.5q59 0 108 -25t84 -69.5t54.5 -105.5t19.5 -132zM831 1248q-2 35 -12 64.5t-28 50.5t-42 33
t-53 12q-22 0 -42.5 -9t-36 -24.5t-25 -36t-9.5 -43.5t9 -43.5t24.5 -36t36 -24.5t43.5 -9q90 0 135 66zM1336 452q0 -101 -26 -184.5t-73 -143t-113 -92t-145 -32.5q-71 0 -121.5 24t-89 67t-69 102t-60.5 128q-18 41 -40 77t-52 62.5t-68.5 42t-88.5 15.5
q-42 0 -73.5 -18.5t-52.5 -47t-32 -64t-11 -69.5q0 -47 13 -86t32 -71t39 -57t35 -44l-119 -81q-33 31 -58 69.5t-42.5 81t-26.5 87.5t-9 90q0 70 21 133t60.5 110t95.5 75t126 28q135 0 225.5 -65.5t149.5 -196.5q24 -53 47.5 -95t49 -70.5t54.5 -43.5t65 -15
q62 0 104.5 20t68.5 57t37 89.5t11 117.5q0 191 -164 352l100 100q200 -197 200 -452z" />
    <glyph glyph-name="glyph320" 
d="M1336 401q0 -166 -87 -278q-96 -123 -257 -123q-179 0 -280 138q-101 -138 -280 -138q-161 0 -257 123q-87 112 -87 278q0 122 51 220q57 110 161 154q-40 -7 -81 -7v128q92 0 166 45q82 50 103 134q-54 -29 -117 -29q-103 0 -176 73t-73 176q0 104 73.5 176.5
t177.5 72.5q128 0 201 -106q65 -93 65 -226q0 -138 -69 -250q-73 -117 -198 -166q29 5 60 5q179 0 280 -138q101 138 280 138q161 0 257 -122q87 -112 87 -278zM498 1248q-3 65 -36 109q-37 51 -99 51q-46 0 -79.5 -33.5t-33.5 -79.5t33.5 -79.5t79.5 -33.5q90 0 135 66z
M1200 418q0 101 -52 171q-58 76 -156 76q-105 0 -162 -81q-50 -71 -50 -181q0 -96 57 -164q61 -71 155 -71q98 0 156 78q52 71 52 172zM644 403q0 107 -51 180q-58 82 -161 82q-98 0 -156 -76q-52 -70 -52 -171t52 -172q58 -78 156 -78q94 0 155 71q57 68 57 164z" />
    <glyph glyph-name="glyph321" horiz-adv-x="1160" 
d="M1072 405q0 -178 -161 -297q-147 -108 -331 -108t-331 108q-161 119 -161 297q0 100 71 188q62 78 160 127h-231v96h347q33 0 82 23q145 66 187 236q-54 -29 -117 -29q-103 0 -176 73t-73 176q0 105 73.5 177t177.5 72q128 0 201 -106q65 -93 65 -226q0 -231 -157 -396
h374v-96h-207q207 -116 207 -315zM1199 -637l-87 -14q-9 83 -40 248q-30 -91 -106 -146t-171 -55q-154 0 -243 132q-98 -132 -243 -132q-125 0 -209 88.5t-84 214.5q0 150 119 244l86 -83q-85 -75 -85 -161q0 -76 49 -129.5t124 -53.5q76 0 129.5 53.5t53.5 129.5h120
q0 -76 53.5 -129.5t129.5 -53.5q75 0 124 53.5t49 129.5q0 150 -132 228l57 105q152 -89 226 -295q43 -118 80 -374zM718 1248q-3 65 -36 109q-37 51 -99 51q-46 0 -79.5 -33.5t-33.5 -79.5t33.5 -79.5t79.5 -33.5q90 0 135 66zM936 411q0 119 -125 187q-102 56 -231 56
t-231 -56q-125 -68 -125 -187t125 -187q102 -56 231 -56t231 56q125 68 125 187z" />
    </font>
</defs>
</svg>
